Linkin Park - What I've Done (Palladia) 1080i [DroneSmelter]

Discussion in 'PALLADIA' started by DroneSmelter, Jan 9, 2014.

  1. DroneSmelter

    DroneSmelter Active Member Capper

    Joined:
    Dec 31, 2013
    Messages:
    48
    Likes Received:
    168
    [​IMG]
    Code:
    Format                                  : MPEG-TS
    File size                                : 148 MiB
    Duration                                : 3mn 24s
    Overall bit rate mode                    : Variable
    Overall bit rate                        : 6 050 Kbps
    Maximum Overall bit rate                : 35.5 Mbps
    
    Format                                  : AVC
    Format/Info                              : Advanced Video Codec
    Format profile                          : Main@L4.0
    Format settings, CABAC                  : Yes
    Format settings, ReFrames                : 4 frames
    Codec ID                                : 27
    Duration                                : 3mn 24s
    Bit rate mode                            : Variable
    Bit rate                                : 5 298 Kbps
    Maximum bit rate                        : 40.0 Mbps
    Width                                    : 1 920 pixels
    Height                                  : 1 080 pixels
    Display aspect ratio                    : 16:9
    Frame rate                              : 29.970 fps
    Standard                                : Component
    Color space                              : YUV
    Chroma subsampling                      : 4:2:0
    Bit depth                                : 8 bits
    Scan type                                : Interlaced
    Scan order                              : Top Field First
    Bits/(Pixel*Frame)                      : 0.085
    Stream size                              : 129 MiB (88%)
    
    Format                                  : AC-3
    Format/Info                              : Audio Coding 3
    Mode extension                          : CM (complete main)
    Format settings, Endianness              : Big
    Codec ID                                : 129
    Duration                                : 3mn 24s
    Bit rate mode                            : Constant
    Bit rate                                : 448 Kbps
    Channel(s)                              : 6 channels
    Channel positions                        : Front: L C R, Side: L R, LFE
    Sampling rate                            : 48.0 KHz
    Bit depth                                : 16 bits
    Compression mode                        : Lossy
    Stream size                              : 10.9 MiB (7%)
    Links:
    Hidden Content:
    You must reply before you can see the hidden data contained here.
     
    Last edited: Jan 25, 2014
    lpplus and adeelkhan like this.
  2. Loading...


  3. ericbook

    ericbook Member

    Joined:
    Jan 3, 2014
    Messages:
    227
    Likes Received:
    5
    Gracias por el video
     
  4. elejido10

    elejido10 Member

    Joined:
    Oct 27, 2013
    Messages:
    202
    Likes Received:
    1
    GRACIAS
     
  5. swarup dutta

    swarup dutta Member

    Joined:
    Dec 29, 2013
    Messages:
    79
    Likes Received:
    3
  6. zcxlyz

    zcxlyz Member

    Joined:
    Dec 7, 2013
    Messages:
    46
    Likes Received:
    0
    thank you very much
     
  7. Laryovceks

    Laryovceks Member

    Joined:
    Dec 5, 2013
    Messages:
    26
    Likes Received:
    0
    Beautiful MaGical What i have To say For this Song , 1000 Likes For this Video Thanks for you Host :p
     
  8. Chayan123

    Chayan123 Member

    Joined:
    Feb 13, 2014
    Messages:
    133
    Likes Received:
    1
  9. riv

    riv Member

    Joined:
    Feb 24, 2014
    Messages:
    69
    Likes Received:
    0
  10. dufe_zhangqiao

    dufe_zhangqiao New Member

    Joined:
    Feb 22, 2014
    Messages:
    5
    Likes Received:
    1
    Thx for sharing!
     
  11. dufe_zhangqiao

    dufe_zhangqiao New Member

    Joined:
    Feb 22, 2014
    Messages:
    5
    Likes Received:
    1
    對不起!出錯了!
    Can't download...
     
    SagarKapasi099 likes this.
  12. grepitu

    grepitu Member

    Joined:
    Feb 1, 2014
    Messages:
    144
    Likes Received:
    9
     
  13. Parce_18

    Parce_18 New Member

    Joined:
    Apr 1, 2014
    Messages:
    11
    Likes Received:
    0
    gracias por el video...
     
  14. swarup dutta

    swarup dutta Member

    Joined:
    Dec 29, 2013
    Messages:
    79
    Likes Received:
    3
  15. swarup dutta

    swarup dutta Member

    Joined:
    Dec 29, 2013
    Messages:
    79
    Likes Received:
    3
  16. Binho

    Binho Member

    Joined:
    Apr 9, 2014
    Messages:
    258
    Likes Received:
    5
    thanks
     
  17. hotrockerBD

    hotrockerBD New Member

    Joined:
    Apr 27, 2014
    Messages:
    6
    Likes Received:
    0
  18. sundayvvvv

    sundayvvvv Member

    Joined:
    Feb 26, 2014
    Messages:
    167
    Likes Received:
    6
  19. dapape

    dapape Member

    Joined:
    Jun 9, 2014
    Messages:
    133
    Likes Received:
    1
  20. slill

    slill Active Member

    Joined:
    Jul 25, 2014
    Messages:
    1,188
    Likes Received:
    21
    thanks for sharing
     
  21. khan

    khan Well-Known Member

    Joined:
    May 11, 2014
    Messages:
    1,922
    Likes Received:
    155
    অনেক ধন্যবাদ .......... :)