DVD Leona Lewis - Happy (Clean) [VOB]

Discussion in 'SD' started by claudio1301, Apr 22, 2021.

  1. claudio1301

    claudio1301 Well-Known Member V . I . P.

    Joined:
    Oct 2, 2018
    Messages:
    1,784
    Likes Received:
    4,358
    [​IMG]
    Code:
    General
    Complete name                  : Leona Lewis - Happy (Clean).VOB
    Format                         : MPEG-PS
    File size                      : 205 MiB
    Duration                       : 3 min 59 s
    Overall bit rate mode          : Variable
    Overall bit rate               : 7 203 kb/s
    
    Video
    ID                             : 224 (0xE0)
    Format                         : MPEG Video
    Format version                 : Version 2
    Format profile                 : Main@Main
    Format settings                : CustomMatrix / BVOP
    Format settings, BVOP          : Yes
    Format settings, Matrix        : Custom
    Format settings, GOP           : Variable
    Format settings, picture struc : Frame
    Duration                       : 3 min 59 s
    Bit rate mode                  : Variable
    Bit rate                       : 6 612 kb/s
    Maximum bit rate               : 8 129 kb/s
    Width                          : 720 pixels
    Height                         : 480 pixels
    Display aspect ratio           : 4:3
    Frame rate                     : 29.970 (30000/1001) FPS
    Standard                       : NTSC
    Color space                    : YUV
    Chroma subsampling             : 4:2:0
    Bit depth                      : 8 bits
    Scan type                      : Interlaced
    Scan order                     : Top Field First
    Compression mode               : Lossy
    Bits/(Pixel*Frame)             : 0.638
    Time code of first frame       : 00:00:00:00
    Time code source               : Group of pictures header
    GOP, Open/Closed               : Closed
    Stream size                    : 189 MiB (92%)
    Color primaries                : BT.601 NTSC
    Transfer characteristics       : BT.601
    Matrix coefficients            : BT.601
    
    Audio
    ID                             : 189 (0xBD)-128 (0x80)
    Format                         : AC-3
    Format/Info                    : Audio Coding 3
    Commercial name                : Dolby Digital
    Muxing mode                    : DVD-Video
    Duration                       : 3 min 59 s
    Bit rate mode                  : Constant
    Bit rate                       : 448 kb/s
    Channel(s)                     : 2 channels
    Channel layout                 : L R
    Sampling rate                  : 48.0 kHz
    Frame rate                     : 31.250 FPS (1536 SPF)
    Compression mode               : Lossy
    Stream size                    : 12.8 MiB (6%)
    Service kind                   : Complete Main
    
    Menu
    Host: Mediafire
    Hidden Content:
    You must reply before you can see the hidden data contained here.
     
    CELOBRAZiL likes this.
  2. Loading...


  3. multimediafm

    multimediafm Well-Known Member Archiver Donor

    Joined:
    Mar 27, 2014
    Messages:
    19,954
    Likes Received:
    2,035
  4. ccecil1985

    ccecil1985 Well-Known Member

    Joined:
    Nov 1, 2020
    Messages:
    779
    Likes Received:
    712
    thank you
     
  5. jopita

    jopita Well-Known Member

    Joined:
    Apr 6, 2016
    Messages:
    1,011
    Likes Received:
    67
    gracias
     
  6. alyssaprimp

    alyssaprimp Well-Known Member

    Joined:
    May 22, 2016
    Messages:
    985
    Likes Received:
    2,478
    HappyyyYYYYYYYyyyyyy
    I think this songs suits with u @marco25
     
  7. CharmedDream

    CharmedDream Active Member

    Joined:
    Feb 19, 2017
    Messages:
    703
    Likes Received:
    201
  8. CELOBRAZiL

    CELOBRAZiL Well-Known Member Capper V . I . P. Donor

    Joined:
    Oct 2, 2013
    Messages:
    10,643
    Likes Received:
    38,393
    Thanks! :)
     
  9. rcj

    rcj Well-Known Member

    Joined:
    May 11, 2016
    Messages:
    1,918
    Likes Received:
    194
    thank U!