HDTV Le Grand Journal de Cannes (2012) - x9 CANAL+ 1080i HDTV DD2.0 H.264 art-v-k-HDMania

Discussion in 'HD Live Performances' started by CELOBRAZiL, Nov 29, 2021.

  1. CELOBRAZiL

    CELOBRAZiL Well-Known Member Capper Uploader V . I . P. Donor

    Joined:
    Oct 2, 2013
    Threads:
    3,261
    Messages:
    14,281
    Likes Received:
    54,714
    Le Grand Journal de Cannes (2012) - x9 CANAL+ 1080i HDTV DD2.0 H.264 art-v-k-HDMania

    [​IMG]
    [​IMG]
    [​IMG]
    [​IMG]
    [​IMG]
    [​IMG]
    [​IMG]
    [​IMG]
    [​IMG]



    General
    ID : 1080 (0x438)
    Complete name : C:\LGJ\1. Gossip - Perfect World - Le Grand Journal de Cannes (2012) CANAL+ 1080i HDTV DD2.0 H.264 art-v-k-HDMania.ts
    Format : MPEG-TS
    File size : 434 MiB
    Duration : 5 min 8 s
    Overall bit rate mode : Variable
    Overall bit rate : 11.8 Mb/s

    Video
    ID : 160 (0xA0)
    Menu ID : 8801 (0x2261)
    Format : AVC
    Format/Info : Advanced Video Codec
    Format profile : Main@L4
    Format settings : CABAC / 4 Ref Frames
    Format settings, CABAC : Yes
    Format settings, Reference frames : 4 frames
    Format settings, GOP : M=8, N=24
    Codec ID : 27
    Duration : 5 min 8 s
    Bit rate : 11.0 Mb/s
    Width : 1 920 pixels
    Height : 1 080 pixels
    Display aspect ratio : 16:9
    Frame rate : 25.000 FPS
    Color space : YUV
    Chroma subsampling : 4:2:0
    Bit depth : 8 bits
    Scan type : Interlaced
    Scan type, store method : Separated fields
    Scan order : Top Field First
    Bits/(Pixel*Frame) : 0.212
    Stream size : 405 MiB (93%)
    Color range : Limited
    Color primaries : BT.709
    Transfer characteristics : BT.709
    Matrix coefficients : BT.709

    Audio
    ID : 82 (0x52)
    Menu ID : 8801 (0x2261)
    Format : AC-3
    Format/Info : Audio Coding 3
    Commercial name : Dolby Digital
    Codec ID : 6
    Duration : 5 min 8 s
    Bit rate mode : Constant
    Bit rate : 192 kb/s
    Channel(s) : 2 channels
    Channel layout : L R
    Sampling rate : 48.0 kHz
    Frame rate : 31.250 FPS (1536 SPF)
    Compression mode : Lossy
    Delay relative to video : 9 ms
    Stream size : 7.06 MiB (2%)
    Language : French
    Service kind : Complete Main

    General
    ID : 6 (0x6)
    Complete name : C:\LGJ\2. LMFAO - Sorry for Party Rocking & I'm Sexy and I Know It - Le Grand Journal de Cannes (2012) CANAL+ 1080i HDTV DD2.0 H.264 art-v-k-HDMania.ts
    Format : MPEG-TS
    File size : 417 MiB
    Duration : 4 min 28 s
    Overall bit rate mode : Variable
    Overall bit rate : 13.0 Mb/s

    Video
    ID : 160 (0xA0)
    Menu ID : 8801 (0x2261)
    Format : AVC
    Format/Info : Advanced Video Codec
    Format profile : Main@L4
    Format settings : CABAC / 4 Ref Frames
    Format settings, CABAC : Yes
    Format settings, Reference frames : 4 frames
    Format settings, GOP : M=8, N=24
    Codec ID : 27
    Duration : 4 min 27 s
    Bit rate : 12.2 Mb/s
    Width : 1 920 pixels
    Height : 1 080 pixels
    Display aspect ratio : 16:9
    Frame rate : 25.000 FPS
    Color space : YUV
    Chroma subsampling : 4:2:0
    Bit depth : 8 bits
    Scan type : Interlaced
    Scan type, store method : Separated fields
    Scan order : Top Field First
    Bits/(Pixel*Frame) : 0.236
    Stream size : 390 MiB (93%)
    Color range : Limited
    Color primaries : BT.709
    Transfer characteristics : BT.709
    Matrix coefficients : BT.709

    Audio
    ID : 82 (0x52)
    Menu ID : 8801 (0x2261)
    Format : AC-3
    Format/Info : Audio Coding 3
    Commercial name : Dolby Digital
    Codec ID : 6
    Duration : 4 min 27 s
    Bit rate mode : Constant
    Bit rate : 192 kb/s
    Channel(s) : 2 channels
    Channel layout : L R
    Sampling rate : 48.0 kHz
    Frame rate : 31.250 FPS (1536 SPF)
    Compression mode : Lossy
    Delay relative to video : 9 ms
    Stream size : 6.13 MiB (1%)
    Language : French
    Service kind : Complete Main

    General
    ID : 6 (0x6)
    Complete name : C:\LGJ\3. Electric Guest - This Head I Hold - Le Grand Journal de Cannes (2012) CANAL+ 1080i HDTV DD2.0 H.264 art-v-k-HDMania.ts
    Format : MPEG-TS
    File size : 197 MiB
    Duration : 3 min 5 s
    Overall bit rate mode : Variable
    Overall bit rate : 8 926 kb/s

    Video
    ID : 160 (0xA0)
    Menu ID : 8801 (0x2261)
    Format : AVC
    Format/Info : Advanced Video Codec
    Format profile : Main@L4
    Format settings : CABAC / 4 Ref Frames
    Format settings, CABAC : Yes
    Format settings, Reference frames : 4 frames
    Format settings, GOP : M=8, N=24
    Codec ID : 27
    Duration : 3 min 4 s
    Bit rate : 8 291 kb/s
    Width : 1 920 pixels
    Height : 1 080 pixels
    Display aspect ratio : 16:9
    Frame rate : 25.000 FPS
    Color space : YUV
    Chroma subsampling : 4:2:0
    Bit depth : 8 bits
    Scan type : Interlaced
    Scan type, store method : Separated fields
    Scan order : Top Field First
    Bits/(Pixel*Frame) : 0.160
    Stream size : 183 MiB (93%)
    Color range : Limited
    Color primaries : BT.709
    Transfer characteristics : BT.709
    Matrix coefficients : BT.709

    Audio
    ID : 82 (0x52)
    Menu ID : 8801 (0x2261)
    Format : AC-3
    Format/Info : Audio Coding 3
    Commercial name : Dolby Digital
    Codec ID : 6
    Duration : 3 min 4 s
    Bit rate mode : Constant
    Bit rate : 192 kb/s
    Channel(s) : 2 channels
    Channel layout : L R
    Sampling rate : 48.0 kHz
    Frame rate : 31.250 FPS (1536 SPF)
    Compression mode : Lossy
    Delay relative to video : 9 ms
    Stream size : 4.23 MiB (2%)
    Language : French
    Service kind : Complete Main

    General
    ID : 6 (0x6)
    Complete name : C:\LGJ\4. Orelsan - Le Chant Des Sirenes - Le Grand Journal de Cannes (2012) CANAL+ 1080i HDTV DD2.0 H.264 art-v-k-HDMania.ts
    Format : MPEG-TS
    File size : 412 MiB
    Duration : 4 min 40 s
    Overall bit rate mode : Variable
    Overall bit rate : 12.3 Mb/s

    Video
    ID : 160 (0xA0)
    Menu ID : 8801 (0x2261)
    Format : AVC
    Format/Info : Advanced Video Codec
    Format profile : Main@L4
    Format settings : CABAC / 4 Ref Frames
    Format settings, CABAC : Yes
    Format settings, Reference frames : 4 frames
    Format settings, GOP : M=8, N=24
    Codec ID : 27
    Duration : 4 min 40 s
    Bit rate : 11.5 Mb/s
    Width : 1 920 pixels
    Height : 1 080 pixels
    Display aspect ratio : 16:9
    Frame rate : 25.000 FPS
    Color space : YUV
    Chroma subsampling : 4:2:0
    Bit depth : 8 bits
    Scan type : Interlaced
    Scan type, store method : Separated fields
    Scan order : Top Field First
    Bits/(Pixel*Frame) : 0.222
    Stream size : 385 MiB (93%)
    Color range : Limited
    Color primaries : BT.709
    Transfer characteristics : BT.709
    Matrix coefficients : BT.709

    Audio
    ID : 82 (0x52)
    Menu ID : 8801 (0x2261)
    Format : AC-3
    Format/Info : Audio Coding 3
    Commercial name : Dolby Digital
    Codec ID : 6
    Duration : 4 min 40 s
    Bit rate mode : Constant
    Bit rate : 192 kb/s
    Channel(s) : 2 channels
    Channel layout : L R
    Sampling rate : 48.0 kHz
    Frame rate : 31.250 FPS (1536 SPF)
    Compression mode : Lossy
    Delay relative to video : 9 ms
    Stream size : 6.42 MiB (2%)
    Language : French
    Service kind : Complete Main

    General
    ID : 6 (0x6)
    Complete name : C:\LGJ\5. Rita Ora - Hot Right Now - Le Grand Journal de Cannes (2012) CANAL+ 1080i HDTV DD2.0 H.264 art-v-k-HDMania.ts
    Format : MPEG-TS
    File size : 249 MiB
    Duration : 3 min 12 s
    Overall bit rate mode : Variable
    Overall bit rate : 10.9 Mb/s

    Video
    ID : 160 (0xA0)
    Menu ID : 8801 (0x2261)
    Format : AVC
    Format/Info : Advanced Video Codec
    Format profile : Main@L4
    Format settings : CABAC / 4 Ref Frames
    Format settings, CABAC : Yes
    Format settings, Reference frames : 4 frames
    Format settings, GOP : M=8, N=24
    Codec ID : 27
    Duration : 3 min 11 s
    Bit rate : 10.1 Mb/s
    Width : 1 920 pixels
    Height : 1 080 pixels
    Display aspect ratio : 16:9
    Frame rate : 25.000 FPS
    Color space : YUV
    Chroma subsampling : 4:2:0
    Bit depth : 8 bits
    Scan type : Interlaced
    Scan type, store method : Separated fields
    Scan order : Top Field First
    Bits/(Pixel*Frame) : 0.196
    Stream size : 232 MiB (93%)
    Color range : Limited
    Color primaries : BT.709
    Transfer characteristics : BT.709
    Matrix coefficients : BT.709

    Audio
    ID : 82 (0x52)
    Menu ID : 8801 (0x2261)
    Format : AC-3
    Format/Info : Audio Coding 3
    Commercial name : Dolby Digital
    Codec ID : 6
    Duration : 3 min 11 s
    Bit rate mode : Constant
    Bit rate : 192 kb/s
    Channel(s) : 2 channels
    Channel layout : L R
    Sampling rate : 48.0 kHz
    Frame rate : 31.250 FPS (1536 SPF)
    Compression mode : Lossy
    Delay relative to video : 9 ms
    Stream size : 4.39 MiB (2%)
    Language : French
    Service kind : Complete Main

    General
    ID : 6 (0x6)
    Complete name : C:\LGJ\6. Michel Telo - Ai Se Eu Te Pego - Le Grand Journal de Cannes (2012) CANAL+ 1080i HDTV DD2.0 H.264 art-v-k-HDMania.ts
    Format : MPEG-TS
    File size : 252 MiB
    Duration : 3 min 18 s
    Overall bit rate mode : Variable
    Overall bit rate : 10.6 Mb/s

    Video
    ID : 160 (0xA0)
    Menu ID : 8801 (0x2261)
    Format : AVC
    Format/Info : Advanced Video Codec
    Format profile : Main@L4
    Format settings : CABAC / 4 Ref Frames
    Format settings, CABAC : Yes
    Format settings, Reference frames : 4 frames
    Format settings, GOP : M=8, N=24
    Codec ID : 27
    Duration : 3 min 18 s
    Bit rate : 9 922 kb/s
    Width : 1 920 pixels
    Height : 1 080 pixels
    Display aspect ratio : 16:9
    Frame rate : 25.000 FPS
    Color space : YUV
    Chroma subsampling : 4:2:0
    Bit depth : 8 bits
    Scan type : Interlaced
    Scan type, store method : Separated fields
    Scan order : Top Field First
    Bits/(Pixel*Frame) : 0.191
    Stream size : 235 MiB (93%)
    Color range : Limited
    Color primaries : BT.709
    Transfer characteristics : BT.709
    Matrix coefficients : BT.709

    Audio
    ID : 82 (0x52)
    Menu ID : 8801 (0x2261)
    Format : AC-3
    Format/Info : Audio Coding 3
    Commercial name : Dolby Digital
    Codec ID : 6
    Duration : 3 min 18 s
    Bit rate mode : Constant
    Bit rate : 192 kb/s
    Channel(s) : 2 channels
    Channel layout : L R
    Sampling rate : 48.0 kHz
    Frame rate : 31.250 FPS (1536 SPF)
    Compression mode : Lossy
    Delay relative to video : 9 ms
    Stream size : 4.54 MiB (2%)
    Language : French
    Service kind : Complete Main

    General
    ID : 6 (0x6)
    Complete name : C:\LGJ\7. The Young Professionals - D.I.S.C.O. - Le Grand Journal de Cannes (2012) CANAL+ 1080i HDTV DD2.0 H.264 art-v-k-HDMania.ts
    Format : MPEG-TS
    File size : 339 MiB
    Duration : 4 min 0 s
    Overall bit rate mode : Variable
    Overall bit rate : 11.8 Mb/s

    Video
    ID : 161 (0xA1)
    Menu ID : 8822 (0x2276)
    Format : AVC
    Format/Info : Advanced Video Codec
    Format profile : Main@L4
    Format settings : CABAC / 4 Ref Frames
    Format settings, CABAC : Yes
    Format settings, Reference frames : 4 frames
    Format settings, GOP : M=8, N=24
    Codec ID : 27
    Duration : 4 min 0 s
    Bit rate : 11.0 Mb/s
    Width : 1 920 pixels
    Height : 1 080 pixels
    Display aspect ratio : 16:9
    Frame rate : 25.000 FPS
    Color space : YUV
    Chroma subsampling : 4:2:0
    Bit depth : 8 bits
    Scan type : Interlaced
    Scan type, store method : Separated fields
    Scan order : Top Field First
    Bits/(Pixel*Frame) : 0.213
    Stream size : 316 MiB (93%)
    Encryption : Seca Mediaguard 1/2
    Color range : Limited
    Color primaries : BT.709
    Transfer characteristics : BT.709
    Matrix coefficients : BT.709

    Audio
    ID : 87 (0x57)
    Menu ID : 8822 (0x2276)
    Format : AC-3
    Format/Info : Audio Coding 3
    Commercial name : Dolby Digital
    Codec ID : 6
    Duration : 4 min 0 s
    Bit rate mode : Constant
    Bit rate : 192 kb/s
    Channel(s) : 2 channels
    Channel layout : L R
    Sampling rate : 48.0 kHz
    Frame rate : 31.250 FPS (1536 SPF)
    Compression mode : Lossy
    Stream size : 5.51 MiB (2%)
    Language : English
    Service kind : Complete Main
    Encryption : Seca Mediaguard 1/2

    General
    ID : 6 (0x6)
    Complete name : C:\LGJ\8. Skip The Use - Give Me Your Life - Le Grand Journal de Cannes (2012) CANAL+ 1080i HDTV DD2.0 H.264 art-v-k-HDMania.ts
    Format : MPEG-TS
    File size : 320 MiB
    Duration : 4 min 11 s
    Overall bit rate mode : Variable
    Overall bit rate : 10.7 Mb/s

    Video
    ID : 160 (0xA0)
    Menu ID : 8801 (0x2261)
    Format : AVC
    Format/Info : Advanced Video Codec
    Format profile : Main@L4
    Format settings : CABAC / 4 Ref Frames
    Format settings, CABAC : Yes
    Format settings, Reference frames : 4 frames
    Format settings, GOP : M=8, N=24
    Codec ID : 27
    Duration : 4 min 10 s
    Bit rate : 9 966 kb/s
    Width : 1 920 pixels
    Height : 1 080 pixels
    Display aspect ratio : 16:9
    Frame rate : 25.000 FPS
    Color space : YUV
    Chroma subsampling : 4:2:0
    Bit depth : 8 bits
    Scan type : Interlaced
    Scan type, store method : Separated fields
    Scan order : Top Field First
    Bits/(Pixel*Frame) : 0.192
    Stream size : 298 MiB (93%)
    Color range : Limited
    Color primaries : BT.709
    Transfer characteristics : BT.709
    Matrix coefficients : BT.709

    Audio
    ID : 82 (0x52)
    Menu ID : 8801 (0x2261)
    Format : AC-3
    Format/Info : Audio Coding 3
    Commercial name : Dolby Digital
    Codec ID : 6
    Duration : 4 min 10 s
    Bit rate mode : Constant
    Bit rate : 192 kb/s
    Channel(s) : 2 channels
    Channel layout : L R
    Sampling rate : 48.0 kHz
    Frame rate : 31.250 FPS (1536 SPF)
    Compression mode : Lossy
    Delay relative to video : 8 ms
    Stream size : 5.74 MiB (2%)
    Language : French
    Service kind : Complete Main

    General
    ID : 1080 (0x438)
    Complete name : C:\LGJ\9. Sexion d'Assaut - Ma Direction - Le Grand Journal de Cannes (2012) CANAL+ 1080i HDTV DD2.0 H.264 art-v-k-HDMania.ts
    Format : MPEG-TS
    File size : 346 MiB
    Duration : 4 min 4 s
    Overall bit rate mode : Variable
    Overall bit rate : 11.9 Mb/s

    Video
    ID : 160 (0xA0)
    Menu ID : 8801 (0x2261)
    Format : AVC
    Format/Info : Advanced Video Codec
    Format profile : Main@L4
    Format settings : CABAC / 4 Ref Frames
    Format settings, CABAC : Yes
    Format settings, Reference frames : 4 frames
    Format settings, GOP : M=8, N=24
    Codec ID : 27
    Duration : 4 min 3 s
    Bit rate : 11.1 Mb/s
    Width : 1 920 pixels
    Height : 1 080 pixels
    Display aspect ratio : 16:9
    Frame rate : 25.000 FPS
    Color space : YUV
    Chroma subsampling : 4:2:0
    Bit depth : 8 bits
    Scan type : Interlaced
    Scan type, store method : Separated fields
    Scan order : Top Field First
    Bits/(Pixel*Frame) : 0.214
    Stream size : 323 MiB (93%)
    Color range : Limited
    Color primaries : BT.709
    Transfer characteristics : BT.709
    Matrix coefficients : BT.709

    Audio
    ID : 82 (0x52)
    Menu ID : 8801 (0x2261)
    Format : AC-3
    Format/Info : Audio Coding 3
    Commercial name : Dolby Digital
    Codec ID : 6
    Duration : 4 min 3 s
    Bit rate mode : Constant
    Bit rate : 192 kb/s
    Channel(s) : 2 channels
    Channel layout : L R
    Sampling rate : 48.0 kHz
    Frame rate : 31.250 FPS (1536 SPF)
    Compression mode : Lossy
    Delay relative to video : 9 ms
    Stream size : 5.58 MiB (2%)
    Language : French
    Service kind : Complete Main


    Link(s):
    Hidden Content:
    You must either reply or click 'Like' to see the hidden information contained here.
     
  2. Loading...


  3. CELOBRAZiL

    CELOBRAZiL Well-Known Member Capper Uploader V . I . P. Donor

    Joined:
    Oct 2, 2013
    Threads:
    3,261
    Messages:
    14,281
    Likes Received:
    54,714
    :love::love::love:

    Added GOOGLE DRIVE link! :p
     
  4. zuiderheide

    zuiderheide Well-Known Member

    Joined:
    Nov 18, 2013
    Threads:
    10
    Messages:
    3,669
    Likes Received:
    256
    thanks
     
    CELOBRAZiL likes this.
  5. Luis Almeida

    Luis Almeida Well-Known Member

    Joined:
    Feb 4, 2015
    Threads:
    20
    Messages:
    2,319
    Likes Received:
    397
    thank you sooo much! do you also have Lily Allen's performances (Hard Out Here and L8 CMMR) on this show?
     
    CELOBRAZiL likes this.
  6. CELOBRAZiL

    CELOBRAZiL Well-Known Member Capper Uploader V . I . P. Donor

    Joined:
    Oct 2, 2013
    Threads:
    3,261
    Messages:
    14,281
    Likes Received:
    54,714
    No! I don't have! :(
     
    Luis Almeida likes this.
  7. P1956

    P1956 Well-Known Member

    Joined:
    Aug 18, 2014
    Threads:
    2
    Messages:
    2,532
    Likes Received:
    359
    thanks
     
    CELOBRAZiL likes this.
  8. RariHeadnap

    RariHeadnap Active Member

    Joined:
    Oct 17, 2020
    Threads:
    0
    Messages:
    184
    Likes Received:
    49
  9. multimediafm

    multimediafm Well-Known Member V . I . P. Collector Donor

    Joined:
    Mar 27, 2014
    Threads:
    46
    Messages:
    22,976
    Likes Received:
    3,162
  10. Adaros

    Adaros Well-Known Member

    Joined:
    Jun 5, 2016
    Threads:
    0
    Messages:
    1,134
    Likes Received:
    167
    thanks
     
  11. nino.navy

    nino.navy Well-Known Member

    Joined:
    May 30, 2014
    Threads:
    30
    Messages:
    5,373
    Likes Received:
    543
    thank a lot
     
  12. lalalie

    lalalie Active Member

    Joined:
    Oct 15, 2015
    Threads:
    0
    Messages:
    280
    Likes Received:
    32
    thanks
     
  13. uminomiyako

    uminomiyako Well-Known Member

    Joined:
    May 28, 2016
    Threads:
    2
    Messages:
    5,939
    Likes Received:
    386
  14. aaliyah2009

    aaliyah2009 Well-Known Member

    Joined:
    Feb 2, 2017
    Threads:
    23
    Messages:
    3,430
    Likes Received:
    229