Lady Gaga - Bad Romance (PALLADIA-AVC-1080i-AC3-DD2.0)

Discussion in 'PALLADIA' started by RAVIXX, Jun 1, 2014.

  1. allynat

    allynat Well-Known Member

    Joined:
    Dec 25, 2017
    Messages:
    1,278
    Likes Received:
    46
    Thanks.
     
  2. dieguitoszac

    dieguitoszac Member

    Joined:
    Jan 25, 2018
    Messages:
    454
    Likes Received:
    10
  3. jack

    jack Active Member

    Joined:
    Aug 6, 2016
    Messages:
    336
    Likes Received:
    29
    thanks
     
  4. tp327

    tp327 Member

    Joined:
    Apr 4, 2018
    Messages:
    503
    Likes Received:
    16
    Thanks
     
  5. SeanDoesComics

    SeanDoesComics New Member

    Joined:
    Apr 6, 2018
    Messages:
    19
    Likes Received:
    1
    Thank you!!
     
  6. thiagodevil

    thiagodevil Member

    Joined:
    Jan 10, 2017
    Messages:
    323
    Likes Received:
    21
    thank you
     
  7. thiagodevil

    thiagodevil Member

    Joined:
    Jan 10, 2017
    Messages:
    323
    Likes Received:
    21
    thank youuu
     
  8. Luiggivs68

    Luiggivs68 Member

    Joined:
    Feb 3, 2017
    Messages:
    341
    Likes Received:
    12
  9. matangi

    matangi Member

    Joined:
    Oct 13, 2017
    Messages:
    55
    Likes Received:
    1
  10. richardpirate25

    richardpirate25 Active Member

    Joined:
    Jul 19, 2018
    Messages:
    369
    Likes Received:
    155
    tnak
    thanks
     
  11. Joao0404

    Joao0404 Member

    Joined:
    Jul 24, 2018
    Messages:
    239
    Likes Received:
    8
    obrigado
    [​IMG]


    Geral

    Identificação: 1 (0 x 1)
    Nome completo: Lady Gaga - Mau Romance PALLADIA AVC 1080i AC3 DD2.0.ts
    Formato: MPEG-TS
    Tamanho do arquivo: 199 MiB
    Duração: 5mn 7s
    Modo de taxa de bits global: Variável
    Taxa de bits global: 5 418 Kbps
    Maximum Overall bit rate : 35.5 Mbps

    Video
    ID : 4113 (0x1011)
    Menu ID : 1 (0x1)
    Format : AVC
    Format/Info : Advanced Video Codec
    Format profile : Main@L4.0
    Format settings, CABAC : Yes
    Format settings, ReFrames : 4 frames
    Codec ID : 27
    Duration : 5mn 6s
    Bit rate : 4 762 Kbps
    Width : 1 440 pixels
    Height : 1 080 pixels
    Display aspect ratio : 16:9
    Frame rate : 29.970 fps
    Standard : Component
    Color space : YUV
    Chroma subsampling : 4:2:0
    Bit depth : 8 bits
    Scan type : Interlaced
    Scan order : Top Field First
    Bits/(Pixel*Frame) : 0.102
    Stream size : 174 MiB (87%)
    Color primaries : BT.709
    Transfer characteristics : BT.709
    Matrix coefficients : BT.709

    Audio
    ID : 4352 (0x1100)
    Menu ID : 1 (0x1)
    Format : AC-3
    Format/Info : Audio Coding 3
    Mode extension : CM (complete main)
    Format settings, Endianness : Big
    Codec ID : 129
    Duration : 5mn 4s
    Bit rate mode : Constant
    Bit rate : 384 Kbps
    Channel(s) : 2 channels
    Channel positions : Front: L R
    Sampling rate : 48.0 KHz
    Bit depth : 16 bits
    Compression mode : Lossy
    Delay relative to video : 22ms
    Stream size : 14.0 MiB (7%)


    DOWNLOAD:

    MEGA

    ***Hidden content cannot be quoted.***

    Password: DETOX
    [/QUOTE]

     
  12. luismaldo

    luismaldo Member

    Joined:
    Aug 5, 2018
    Messages:
    152
    Likes Received:
    2
    gracias
     
  13. eduardoborbasantos

    eduardoborbasantos Member

    Joined:
    Oct 26, 2016
    Messages:
    113
    Likes Received:
    10
    obrigado
     
    Pereira_9395 likes this.
  14. Johnatanmiramez

    Johnatanmiramez Active Member

    Joined:
    Apr 17, 2017
    Messages:
    500
    Likes Received:
    33
  15. happyelf110605

    happyelf110605 Member

    Joined:
    Mar 3, 2017
    Messages:
    94
    Likes Received:
    11
  16. Josejv1995

    Josejv1995 Active Member

    Joined:
    Nov 3, 2018
    Messages:
    510
    Likes Received:
    38
    Tnk you so much!
     
  17. Jonsan10

    Jonsan10 Active Member

    Joined:
    Jul 8, 2018
    Messages:
    745
    Likes Received:
    55
    Thanksss
     
  18. Pereira_9395

    Pereira_9395 Member

    Joined:
    Oct 17, 2018
    Messages:
    232
    Likes Received:
    18
    aaarrtwr
     
  19. Pereira_9395

    Pereira_9395 Member

    Joined:
    Oct 17, 2018
    Messages:
    232
    Likes Received:
    18
  20. Pereira_9395

    Pereira_9395 Member

    Joined:
    Oct 17, 2018
    Messages:
    232
    Likes Received:
    18