LADY GAGA - APPLAUSE (Master Clean ProRes 4K)

Discussion in 'PRORES HD' started by SanaYoku, Aug 1, 2021.

  1. SanaYoku

    SanaYoku Well-Known Member

    Joined:
    Mar 9, 2018
    Messages:
    1,457
    Likes Received:
    198
    [​IMG][/url][/IMG] [​IMG][​IMG][/url][/IMG]

    Code:
    General
    Complete name                  : LADY GAGA - APPLAUSE (Master Clean ProRes 4K).mov
    Format                         : MPEG-4
    Format profile                 : QuickTime
    Codec ID                       : qt   2005.03 (qt  )
    File size                      : 16.5 GiB
    Duration                       : 3 min 35 s
    Overall bit rate mode          : Variable
    Overall bit rate               : 658 Mb/s
    Encoded date                   : UTC 2013-09-19 17:26:03
    Tagged date                    : UTC 2013-11-10 14:45:54
    Writing library                : Apple QuickTime
    TSC                            : 24
    TSZ                            : 1
    
    Video
    ID                             : 5
    Format                         : ProRes
    Format version                 : Version 0
    Format profile                 : 422 HQ
    Codec ID                       : apch
    Duration                       : 3 min 35 s
    Bit rate mode                  : Variable
    Bit rate                       : 657 Mb/s
    Width                          : 3 840 pixels
    Height                         : 2 160 pixels
    Display aspect ratio           : 16:9
    Frame rate mode                : Constant
    Frame rate                     : 24.000 FPS
    Color space                    : YUV
    Chroma subsampling             : 4:2:2
    Scan type                      : Progressive
    Bits/(Pixel*Frame)             : 3.299
    Stream size                    : 16.5 GiB (100%)
    Writing library                : aut0
    Language                       : English
    Encoded date                   : UTC 2013-11-10 14:45:54
    Tagged date                    : UTC 2013-11-10 14:45:54
    Color primaries                : BT.709
    Transfer characteristics       : BT.709
    Matrix coefficients            : BT.709
    
    Audio
    ID                             : 3
    Format                         : PCM
    Format settings                : Big / Signed
    Codec ID                       : lpcm
    Duration                       : 3 min 35 s
    Bit rate mode                  : Constant
    Bit rate                       : 1 536 kb/s
    Channel(s)                     : 2 channels
    Channel layout                 : L R
    Sampling rate                  : 48.0 kHz
    Bit depth                      : 16 bits
    Stream size                    : 39.5 MiB (0%)
    Language                       : English
    Encoded date                   : UTC 2013-09-19 17:26:03
    Tagged date                    : UTC 2013-09-19 17:26:03
    
    Other
    ID                             : 2
    Type                           : Time code
    Format                         : QuickTime TC
    Duration                       : 3 min 35 s
    Frame rate                     : 24.000 FPS
    Time code of first frame       : 00:00:00:00
    Time code, striped             : Yes
    Title                          : untitled
    Language                       : English
    Default                        : No
    Encoded date                   : UTC 2013-09-19 17:26:03
    Tagged date                    : UTC 2013-09-19 17:26:03
    
    
    Hidden Content:
    You must reply before you can see the hidden data contained here.
     
  2. Loading...


  3. MarcosDiaz_1991

    MarcosDiaz_1991 Active Member

    Joined:
    Feb 2, 2020
    Messages:
    475
    Likes Received:
    31
  4. Plazik

    Plazik Active Member

    Joined:
    Oct 7, 2013
    Messages:
    297
    Likes Received:
    43
    thanks
     
  5. Leonardo7777777

    Leonardo7777777 Active Member

    Joined:
    Jan 3, 2016
    Messages:
    829
    Likes Received:
    39
  6. xav1

    xav1 Member

    Joined:
    Jul 1, 2020
    Messages:
    127
    Likes Received:
    1
    thanks
     
  7. alexstarstruck

    alexstarstruck Active Member

    Joined:
    Oct 7, 2020
    Messages:
    826
    Likes Received:
    46
    thanksssss
     
  8. alonetogether

    alonetogether Active Member

    Joined:
    Sep 21, 2016
    Messages:
    201
    Likes Received:
    115
  9. hakob

    hakob Member

    Joined:
    Mar 7, 2015
    Messages:
    252
    Likes Received:
    10
    Thank.
     
  10. mmbento

    mmbento Active Member

    Joined:
    Jan 28, 2014
    Messages:
    685
    Likes Received:
    100
    16 GB? Holy mother!!!
     
  11. OFatherOsatan

    OFatherOsatan Active Member

    Joined:
    May 28, 2021
    Messages:
    162
    Likes Received:
    34
  12. abcdefg

    abcdefg Well-Known Member

    Joined:
    Feb 6, 2018
    Messages:
    1,185
    Likes Received:
    122
    Thanks
     
  13. Honglong

    Honglong Well-Known Member

    Joined:
    Feb 6, 2020
    Messages:
    1,506
    Likes Received:
    112
    thanks
     
  14. lukapekic1

    lukapekic1 Well-Known Member

    Joined:
    Mar 5, 2016
    Messages:
    215
    Likes Received:
    378
  15. Mwhaha

    Mwhaha Member

    Joined:
    Nov 17, 2013
    Messages:
    112
    Likes Received:
    5
    nice!
     
  16. fred BK

    fred BK Active Member

    Joined:
    Nov 16, 2020
    Messages:
    452
    Likes Received:
    25
    Thanks
     
  17. QuentinQuantique

    QuentinQuantique Member

    Joined:
    Aug 21, 2018
    Messages:
    124
    Likes Received:
    15
  18. Tommyboy

    Tommyboy Well-Known Member

    Joined:
    Oct 23, 2016
    Messages:
    1,643
    Likes Received:
    78
    G.Tanks
     
  19. CELOBRAZiL

    CELOBRAZiL Well-Known Member Capper V . I . P. Donor

    Joined:
    Oct 2, 2013
    Messages:
    12,761
    Likes Received:
    46,064
    Thank you so much! :)
     
    SanaYoku likes this.
  20. Vero91

    Vero91 Active Member

    Joined:
    Mar 19, 2015
    Messages:
    580
    Likes Received:
    126
    thank u
     
  21. bruno4431

    bruno4431 Member

    Joined:
    Jul 31, 2016
    Messages:
    138
    Likes Received:
    11
    dfsdfsfds