CC [L] Louis Armstrong - What A Wonderful World (PARAMOUNTHD-1080i-DD2.0-CELOBRAZiL) [CC]-HDMania

Discussion in 'PARAMOUNT' started by Snorom6, Jun 6, 2016.

  1. Snorom6

    Snorom6 Well-Known Member V . I . P. Uploader

    Joined:
    Dec 17, 2015
    Messages:
    4,246
    Likes Received:
    9,595
    [L] Louis Armstrong - What A Wonderful World (PARAMOUNTHD-1080i-DD2.0-CELOBRAZiL) [CC]-HDMania


    [​IMG]


    Code:
    General
    ID                             : 1 (0x1)
    Complete name                  : [L] Louis Armstrong - What A Wonderful World (PARAMOUNTHD-1080i-DD2.0-CELOBRAZiL) [CC]-HDMania.ts
    Format                         : MPEG-TS
    File size                      : 144 MiB
    Duration                       : 2mn 31s
    Overall bit rate mode          : Variable
    Overall bit rate               : 7 931 Kbps
    
    Video
    ID                             : 4624 (0x1210)
    Menu ID                        : 658 (0x292)
    Format                         : AVC
    Format/Info                    : Advanced Video Codec
    Format profile                 : High@L4
    Format settings, CABAC         : Yes
    Format settings, ReFrames      : 3 frames
    Codec ID                       : 27
    Duration                       : 2mn 31s
    Bit rate                       : 7 151 Kbps
    Width                          : 1 920 pixels
    Height                         : 1 080 pixels
    Display aspect ratio           : 16:9
    Frame rate                     : 29.970 fps
    Color space                    : YUV
    Chroma subsampling             : 4:2:0
    Bit depth                      : 8 bits
    Scan type                      : MBAFF
    Scan order                     : Top Field First
    Bits/(Pixel*Frame)             : 0.115
    Stream size                    : 129 MiB (90%)
    
    Audio #1
    ID                             : 4625 (0x1211)
    Menu ID                        : 658 (0x292)
    Format                         : AC-3
    Format/Info                    : Audio Coding 3
    Mode extension                 : CM (complete main)
    Format settings, Endianness    : Big
    Codec ID                       : 129
    Duration                       : 2mn 31s
    Bit rate mode                  : Constant
    Bit rate                       : 192 Kbps
    Channel(s)                     : 2 channels
    Channel positions              : Front: L R
    Sampling rate                  : 48.0 KHz
    Compression mode               : Lossy
    Stream size                    : 3.47 MiB (2%)
    Language                       : Portuguese
    
    Audio #2
    ID                             : 4626 (0x1212)
    Menu ID                        : 658 (0x292)
    Format                         : AC-3
    Format/Info                    : Audio Coding 3
    Mode extension                 : CM (complete main)
    Format settings, Endianness    : Big
    Codec ID                       : 129
    Duration                       : 2mn 31s
    Bit rate mode                  : Constant
    Bit rate                       : 192 Kbps
    Channel(s)                     : 2 channels
    Channel positions              : Front: L R
    Sampling rate                  : 48.0 KHz
    Compression mode               : Lossy
    Stream size                    : 3.47 MiB (2%)
    Language                       : English
    
    Text #1
    ID                             : 4624 (0x1210)-CC1
    Menu ID                        : 658 (0x292)
    Format                         : EIA-608
    Muxing mode                    : SCTE 128 / DTVCC Transport
    Muxing mode, more info         : Muxed in Video #1
    Duration                       : 2mn 31s
    Bit rate mode                  : Constant
    Stream size                    : 0.00 Byte (0%)
    
    Text #2
    ID                             : 4624 (0x1210)-1
    Menu ID                        : 658 (0x292)
    Format                         : EIA-708
    Muxing mode                    : SCTE 128 / DTVCC Transport
    Muxing mode, more info         : Muxed in Video #1
    Duration                       : 2mn 31s
    Bit rate mode                  : Constant
    Stream size                    : 0.00 Byte (0%)
    
    

    Hidden Content:
    You must either reply or click 'Like' to see the hidden information contained here.
    Hidden Content:
    You must either reply or click 'Like' to see the hidden information contained here.
     
  2. Loading...


  3. muratguren

    muratguren Well-Known Member

    Joined:
    Mar 6, 2016
    Messages:
    2,850
    Likes Received:
    71
    thank you
     
  4. tapions

    tapions Well-Known Member

    Joined:
    Aug 30, 2016
    Messages:
    1,296
    Likes Received:
    137
    gracias
     
  5. danicoteca

    danicoteca Member

    Joined:
    Sep 10, 2016
    Messages:
    300
    Likes Received:
    21
  6. lyana94

    lyana94 Well-Known Member

    Joined:
    Jul 5, 2017
    Messages:
    2,125
    Likes Received:
    98
    THA
    NKS
     
  7. CristianMatias

    CristianMatias Next Generations

    Joined:
    Sep 17, 2016
    Messages:
    1,380
    Likes Received:
    459
    Louis Armstrong - What A Wonderful World
     
  8. looky

    looky Active Member

    Joined:
    Mar 22, 2017
    Messages:
    932
    Likes Received:
    27
    thanks
     
  9. Riuky

    Riuky Member

    Joined:
    Oct 18, 2018
    Messages:
    46
    Likes Received:
    6
    thanks
     
  10. RogerCieslar

    RogerCieslar Active Member

    Joined:
    Jan 3, 2018
    Messages:
    641
    Likes Received:
    68
  11. tn5656

    tn5656 Well-Known Member

    Joined:
    Jan 20, 2017
    Messages:
    8,630
    Likes Received:
    702
    Thank you !!
     
  12. Brungor

    Brungor From The Planet Glamtron

    Joined:
    Dec 9, 2015
    Messages:
    1,609
    Likes Received:
    1,216
    Thank u, Please more PARAMOUNT HD vids
     
  13. sigosiendo

    sigosiendo Active Member

    Joined:
    Oct 30, 2018
    Messages:
    912
    Likes Received:
    43
    Thanks!!!
     
  14. radsen

    radsen Member

    Joined:
    Mar 14, 2021
    Messages:
    346
    Likes Received:
    10
    thanks
     
  15. vico22

    vico22 Member

    Joined:
    Jan 16, 2021
    Messages:
    632
    Likes Received:
    3
    Gracias
     
  16. vico22

    vico22 Member

    Joined:
    Jan 16, 2021
    Messages:
    632
    Likes Received:
    3
    gracias