Kenan.and.Kel.S01.540p.PMNP.WEB-DL.AAC2.0.H.264-DdN

Discussion in 'Movies & TV Shows' started by LucasAndrel, Aug 1, 2021.

  1. LucasAndrel

    LucasAndrel Member

    Joined:
    Aug 6, 2018
    Messages:
    23
    Likes Received:
    25
    [​IMG]
    Kenan.and.Kel.S01.540p.PMNP.WEB-DL.AAC2.0.H.264-DdN

    General
    Unique ID : 124510040176878347574197548405213453683 (0x5DABC2F00C70515C33AA9E6419C95D73)
    Complete name : Kenan.and.Kel.S01E01.The.Tainting.of.the.Screw.540p.PMNP.WEB-DL.AAC2.0.H.264-DdN.mkv
    Format : Matroska
    Format version : Version 4 / Version 2
    File size : 753 MiB
    Duration : 22 min 48 s
    Overall bit rate : 4 619 kb/s
    Encoded date : UTC 2021-08-01 04:35:18
    Writing application : mkvmerge v59.0.0 ('Shining Star') 64-bit
    Writing library : libebml v1.4.2 + libmatroska v1.6.4

    Video
    ID : 1
    Format : AVC
    Format/Info : Advanced Video Codec
    Format profile : High@L4
    Format settings, CABAC : Yes
    Format settings, RefFrames : 5 frames
    Codec ID : V_MPEG4/ISO/AVC
    Duration : 22 min 48 s
    Bit rate : 4 500 kb/s
    Width : 720 pixels
    Height : 540 pixels
    Display aspect ratio : 4:3
    Frame rate mode : Constant
    Frame rate : 29.970 (30000/1001) FPS
    Color space : YUV
    Chroma subsampling : 4:2:0
    Bit depth : 8 bits
    Scan type : Progressive
    Bits/(Pixel*Frame) : 0.386
    Stream size : 732 MiB (97%)
    Writing library : x264 core 161 r3015 4c2aafd
    Encoding settings : cabac=1 / ref=5 / deblock=1:0:0 / analyse=0x3:0x113 / me=hex / subme=8 / psy=1 / psy_rd=1.00:0.00 / mixed_ref=1 / me_range=16 / chroma_me=1 / trellis=2 / 8x8dct=1 / cqm=0 / deadzone=21,11 / fast_pskip=1 / chroma_qp_offset=-2 / threads=6 / lookahead_threads=1 / sliced_threads=0 / nr=0 / decimate=1 / interlaced=0 / bluray_compat=0 / stitchable=1 / constrained_intra=0 / bframes=3 / b_pyramid=2 / b_adapt=1 / b_bias=0 / direct=3 / weightb=1 / open_gop=0 / weightp=2 / keyint=60 / keyint_min=6 / scenecut=0 / intra_refresh=0 / rc_lookahead=50 / rc=2pass / mbtree=1 / bitrate=4500 / ratetol=1.0 / qcomp=0.60 / qpmin=0 / qpmax=69 / qpstep=4 / cplxblur=20.0 / qblur=0.5 / vbv_maxrate=5400 / vbv_bufsize=4500 / nal_hrd=none / filler=0 / ip_ratio=1.40 / aq=1:1.00
    Default : Yes
    Forced : No

    Audio
    ID : 2
    Format : AAC
    Format/Info : Advanced Audio Codec
    Format profile : LC
    Codec ID : A_AAC
    Duration : 22 min 48 s
    Bit rate : 125 kb/s
    Channel(s) : 2 channels
    Channel positions : Front: L R
    Sampling rate : 48.0 kHz
    Frame rate : 46.875 FPS (1024 SPF)
    Compression mode : Lossy
    Stream size : 20.3 MiB (3%)
    Title : English
    Language : English
    Default : No
    Forced : No

    Text
    ID : 3
    Format : UTF-8
    Codec ID : S_TEXT/UTF8
    Codec ID/Info : UTF-8 Plain Text
    Duration : 22 min 41 s
    Bit rate : 133 b/s
    Count of elements : 601
    Stream size : 22.3 KiB (0%)
    Language : English
    Default : No
    Forced : No



    [​IMG]



    Hidden Content:
    You must reply before you can see the hidden data contained here.
     
    reydson likes this.
  2. Loading...


  3. reydson

    reydson New Member

    Joined:
    Nov 18, 2018
    Messages:
    5
    Likes Received:
    0
    Obrigado.
     
  4. Dimf

    Dimf New Member

    Joined:
    Aug 10, 2021
    Messages:
    4
    Likes Received:
    0
    Thanks
     
  5. lbmecca

    lbmecca Member

    Joined:
    Jun 11, 2021
    Messages:
    68
    Likes Received:
    1
    thank you!
     
  6. nachostripped

    nachostripped Well-Known Member

    Joined:
    Feb 5, 2015
    Messages:
    1,465
    Likes Received:
    1,528
    thnak you
     
  7. senbon

    senbon New Member

    Joined:
    Feb 27, 2017
    Messages:
    5
    Likes Received:
    0
    arigato gosaimassu
     
  8. HelloThereNow

    HelloThereNow New Member

    Joined:
    Aug 31, 2021
    Messages:
    1
    Likes Received:
    0