Justin Bieber - What Do You Mean? (One.by HD 1080i) - dan93star

Discussion in 'One.by HD' started by Dreamer, Nov 5, 2015.

  1. Dreamer

    Dreamer Stream RED (Taylor's Version) V . I . P. Uploader

    Joined:
    Dec 4, 2014
    Messages:
    3,412
    Likes Received:
    14,596
    Justin Bieber - What Do You Mean? (One.by HD)

    [​IMG]

    General
    ID : 0 (0x0)
    Complete name : C:\Users\DK\Desktop\Justin Bieber - What Do You Mean (One.by HD).ts
    Format : MPEG-TS
    File size : 161 MiB
    Duration : 4mn 45s
    Overall bit rate mode : Variable
    Overall bit rate : 4 720 Kbps
    Maximum Overall bit rate : 3 736 Kbps

    Video
    ID : 4113 (0x1011)
    Menu ID : 1 (0x1)
    Format : AVC
    Format/Info : Advanced Video Codec
    Format profile : High@L4
    Format settings, CABAC : Yes
    Format settings, ReFrames : 2 frames
    Codec ID : 27
    Duration : 4mn 45s
    Bit rate : 4 332 Kbps
    Width : 1 920 pixels
    Height : 1 080 pixels
    Display aspect ratio : 16:9
    Frame rate : 25.000 fps
    Color space : YUV
    Chroma subsampling : 4:2:0
    Bit depth : 8 bits
    Scan type : Progressive
    Bits/(Pixel*Frame) : 0.084
    Stream size : 147 MiB (92%)

    Audio
    ID : 4352 (0x1100)
    Menu ID : 1 (0x1)
    Format : AC-3
    Format/Info : Audio Coding 3
    Mode extension : CM (complete main)
    Format settings, Endianness : Big
    Codec ID : 129
    Duration : 4mn 45s
    Bit rate mode : Constant
    Bit rate : 192 Kbps
    Channel(s) : 2 channels
    Channel positions : Front: L R
    Sampling rate : 48.0 KHz
    Compression mode : Lossy
    Stream size : 6.53 MiB (4%)

    Capped by me

    Hidden Content:
    You must reply before you can see the hidden data contained here.

     
    RAVIXX, Romana, rhea and 1 other person like this.
  2. Loading...


  3. Mihaly Halasz

    Mihaly Halasz Member

    Joined:
    Nov 23, 2013
    Messages:
    45
    Likes Received:
    1
    thank you
     
  4. rhea

    rhea Well-Known Member

    Joined:
    Jan 6, 2014
    Messages:
    12,167
    Likes Received:
    2,435
    thank you so much
     
  5. Crusha

    Crusha Well-Known Member Capper V . I . P.

    Joined:
    Oct 15, 2014
    Messages:
    2,575
    Likes Received:
    4,477
    thank you
     
  6. Romana

    Romana Active Member

    Joined:
    Oct 26, 2013
    Messages:
    959
    Likes Received:
    144
    thank u
     
  7. BinhTVT

    BinhTVT Member

    Joined:
    Jun 30, 2015
    Messages:
    322
    Likes Received:
    4
    thank u
     
  8. BJ Kenni

    BJ Kenni Active Member

    Joined:
    Mar 30, 2018
    Messages:
    197
    Likes Received:
    28
    thanks you
     
  9. aaroon

    aaroon Member

    Joined:
    Apr 21, 2019
    Messages:
    314
    Likes Received:
    10
    thnaks
     
  10. pickdonna

    pickdonna Active Member

    Joined:
    Dec 13, 2016
    Messages:
    993
    Likes Received:
    47
    thank u
     
  11. drewgoze

    drewgoze Member

    Joined:
    Jun 20, 2019
    Messages:
    49
    Likes Received:
    1
  12. piadehkoohsar1992

    piadehkoohsar1992 IRAN (PERSIAN)

    Joined:
    Feb 7, 2020
    Messages:
    396
    Likes Received:
    113
  13. tobycavanaugh

    tobycavanaugh Member

    Joined:
    Oct 3, 2020
    Messages:
    64
    Likes Received:
    3
    Thank you
     
  14. Vvenusss

    Vvenusss Well-Known Member

    Joined:
    Oct 29, 2020
    Messages:
    1,610
    Likes Received:
    122