DVD Jessica Simpson - Irresistible (Promo DVD VOB)

Discussion in 'SD' started by Synthwave_Evans, Nov 29, 2021.

  1. Synthwave_Evans

    Synthwave_Evans Click On Like To Unlock My Links V . I . P.

    Joined:
    Feb 18, 2020
    Messages:
    1,899
    Likes Received:
    3,605
    [​IMG]

    Jessica Simpson - Irresistible

    Video
    ID: 4113 (0x1011)
    Menu ID: 1 (0x1)
    Format: MPEG Video
    Format version: Version 2
    Format profile: Main@Main
    Format settings: CustomMatrix / BVOP
    Format settings, BVOP: Yes
    Format settings, Matrix: Custom
    Format settings, GOP: M=3, N=15
    Format settings, picture struc:Frame
    Codec ID: 2
    Duration: 3 min 12 s
    Bit rate mode: Constant
    Bit rate: 4 441 kb/s
    Maximum bit rate: 4 500 kb/s
    Width: 720 pixels
    Height: 480 pixels
    Display aspect ratio: 4:3
    Frame rate: 29.970 (30000/1001) FPS
    Standard: NTSC
    Color space: YUV
    Chroma subsampling: 4:2:0
    Bit depth: 8 bits
    Scan type: Interlaced
    Scan order: Bottom Field First
    Compression mode: Lossy
    Bits/(Pixel*Frame): 0.429
    Time code of first frame: 01:03:52;03
    Time code source: Group of pictures header
    GOP, Open/Closed: Closed
    Stream size: 102 MiB (90%)
    Color primaries: BT.601 NTSC
    Transfer characteristics: BT.601
    Matrix coefficients: BT.601

    Audio
    ID: 4352 (0x1100)
    Menu ID: 1 (0x1)
    Format: MPEG Audio
    Format version: Version 1
    Format profile: Layer 2
    Codec ID: 4
    Duration: 3 min 12 s
    Bit rate mode: Constant
    Bit rate: 256 kb/s
    Channel(s): 2 channels
    Sampling rate: 44.1 kHz
    Frame rate: 38.281 FPS (1152 SPF)
    Compression mode: Lossy
    Stream size: 5.88 MiB (5%)

    Hidden Content:
    You must either reply or click 'Like' to see the hidden information contained here.

     
  2. Loading...


  3. 96lagos

    96lagos Well-Known Member

    Joined:
    Dec 4, 2016
    Messages:
    2,706
    Likes Received:
    257
    Thanks