Jennifer Paige - Crush (AI Upscale 1080p)

Discussion in 'UPSCALED' started by sori, Apr 18, 2021.

  1. sori

    sori Active Member

    Joined:
    Oct 22, 2013
    Messages:
    232
    Likes Received:
    54
    [​IMG]
    [​IMG] [​IMG]
    Complete name : Jennifer Paige - Crush (AI Upscale 1080p).mp4
    Format : MPEG-4
    Format profile : Base Media
    Codec ID : isom (isom/avc1)
    File size : 318 MiB
    Duration : 3 min 19 s
    Overall bit rate : 13.3 Mb/s
    Encoded date : UTC 2021-04-18 08:07:00
    Tagged date : UTC 2021-04-18 08:07:00

    Video
    ID : 1
    Format : AVC
    Format/Info : Advanced Video Codec
    Format profile : High@L4.1
    Format settings : CABAC / 5 Ref Frames
    Format settings, CABAC : Yes
    Format settings, Reference fra : 5 frames
    Codec ID : avc1
    Codec ID/Info : Advanced Video Coding
    Duration : 3 min 19 s
    Bit rate : 12.9 Mb/s
    Maximum bit rate : 26.2 Mb/s
    Width : 1 440 pixels
    Height : 1 080 pixels
    Display aspect ratio : 4:3
    Frame rate mode : Constant
    Frame rate : 23.976 (24000/1001) FPS
    Color space : YUV
    Chroma subsampling : 4:2:0
    Bit depth : 8 bits
    Scan type : Progressive
    Bits/(Pixel*Frame) : 0.347
    Stream size : 309 MiB (97%)
    Writing library : x264 core 157 r2969 d4099dd
    Encoding settings : cabac=1 / ref=5 / deblock=1:-3:-3 / analyse=0x3:0x133 / me=umh / subme=10 / psy=1 / psy_rd=1.00:0.00 / mixed_ref=1 / me_range=24 / chroma_me=1 / trellis=2 / 8x8dct=1 / cqm=0 / deadzone=21,11 / fast_pskip=1 / chroma_qp_offset=-2 / threads=6 / lookahead_threads=1 / sliced_threads=0 / nr=0 / decimate=1 / interlaced=0 / bluray_compat=0 / constrained_intra=0 / bframes=8 / b_pyramid=2 / b_adapt=2 / b_bias=0 / direct=3 / weightb=1 / open_gop=0 / weightp=2 / keyint=240 / keyint_min=23 / scenecut=40 / intra_refresh=0 / rc_lookahead=60 / rc=crf / mbtree=1 / crf=16.0 / qcomp=0.60 / qpmin=0 / qpmax=51 / qpstep=4 / vbv_maxrate=62500 / vbv_bufsize=78125 / crf_max=0.0 / nal_hrd=none / filler=0 / ip_ratio=1.40 / aq=1:1.00
    Encoded date : UTC 2021-04-18 08:07:00
    Tagged date : UTC 2021-04-18 08:07:10
    Codec configuration box : avcC

    Audio
    ID : 2
    Format : AC-3
    Format/Info : Audio Coding 3
    Commercial name : Dolby Digital
    Codec ID : ac-3
    Duration : 3 min 19 s
    Bit rate mode : Constant
    Bit rate : 384 kb/s
    Maximum bit rate : 406 kb/s
    Channel(s) : 2 channels
    Channel layout : L R
    Sampling rate : 48.0 kHz
    Frame rate : 31.250 FPS (1536 SPF)
    Compression mode : Lossy
    Stream size : 9.15 MiB (3%)
    Service kind : Complete Main
    Encoded date : UTC 2021-04-18 08:07:10
    Tagged date : UTC 2021-04-18 08:07:10

    - Look more naturally with less sharpening
    - Upscaled from the Director's source => More details than Promo VOB, of course superior than the crappy clean 25i VOB

    Download:
    Hidden Content:
    You must reply before you can see the hidden data contained here.
     
  2. Loading...


  3. Artik

    Artik Active Member

    Joined:
    Apr 16, 2018
    Messages:
    1,452
    Likes Received:
    24
  4. Pein325

    Pein325 Active Member

    Joined:
    Dec 7, 2020
    Messages:
    1,120
    Likes Received:
    12
    Thanks
     
  5. Romain

    Romain Well-Known Member

    Joined:
    Jul 14, 2014
    Messages:
    1,837
    Likes Received:
    58
    thank
     
  6. ccecil1985

    ccecil1985 Well-Known Member

    Joined:
    Nov 1, 2020
    Messages:
    769
    Likes Received:
    707
  7. quake360

    quake360 Active Member

    Joined:
    Feb 1, 2020
    Messages:
    745
    Likes Received:
    36
    thanks
     
  8. stevepen

    stevepen Member

    Joined:
    Dec 25, 2017
    Messages:
    78
    Likes Received:
    4
    cheers
     
  9. vinyferraz

    vinyferraz Member

    Joined:
    Jul 17, 2020
    Messages:
    183
    Likes Received:
    3
  10. MajorVi

    MajorVi Active Member

    Joined:
    Feb 12, 2016
    Messages:
    885
    Likes Received:
    35
    Thanks
     
  11. 15963rodds

    15963rodds Member

    Joined:
    Apr 9, 2021
    Messages:
    211
    Likes Received:
    2
    holaaaaaa
     
  12. rober31

    rober31 Well-Known Member

    Joined:
    Jun 2, 2017
    Messages:
    1,162
    Likes Received:
    109
    thanks!!
     
  13. Olaflyn

    Olaflyn Well-Known Member

    Joined:
    May 25, 2017
    Messages:
    2,581
    Likes Received:
    161
    Thanks
     
  14. muratguren

    muratguren Well-Known Member

    Joined:
    Mar 6, 2016
    Messages:
    2,694
    Likes Received:
    68
    thank you
     
  15. tasha 90210

    tasha 90210 Member

    Joined:
    Dec 27, 2016
    Messages:
    446
    Likes Received:
    21
  16. nahunalbertogomez

    nahunalbertogomez Active Member

    Joined:
    Jun 2, 2020
    Messages:
    970
    Likes Received:
    102
  17. siralex

    siralex Active Member

    Joined:
    Jun 12, 2016
    Messages:
    677
    Likes Received:
    26