MASTER INNA - Yalla [Master 1080] idfrann!

Discussion in 'MASTER & MASTER RIP' started by fstambuk, Jul 21, 2021.

  1. fstambuk

    fstambuk Follow me on instagram: idfrann :) V . I . P.

    Joined:
    Sep 21, 2014
    Messages:
    1,990
    Likes Received:
    6,185
    [​IMG]

    Code:
    Format                                   : MPEG-4
    Format profile                           : Base Media / Version 2
    Codec ID                                 : mp42 (mp42/mp41)
    File size                                : 1.10 GiB
    Duration                                 : 3 min 16 s
    Overall bit rate mode                    : Variable
    Overall bit rate                         : 48.3 Mb/s
    Encoded date                             : UTC 2015-11-12 15:21:48
    Tagged date                              : UTC 2015-11-12 15:22:57
    TIM                                      : 00:00:00:00
    TSC                                      : 25
    TSZ                                      : 1
    
    Video
    ID                                       : 1
    Format                                   : AVC
    Format/Info                              : Advanced Video Codec
    Format profile                           : Main@L4.2
    Format settings                          : CABAC / 3 Ref Frames
    Format settings, CABAC                   : Yes
    Format settings, Reference frames        : 3 frames
    Codec ID                                 : avc1
    Codec ID/Info                            : Advanced Video Coding
    Duration                                 : 3 min 16 s
    Bit rate                                 : 48.0 Mb/s
    Width                                    : 1 920 pixels
    Height                                   : 1 080 pixels
    Display aspect ratio                     : 16:9
    Frame rate mode                          : Constant
    Frame rate                               : 25.000 FPS
    Standard                                 : PAL
    Color space                              : YUV
    Chroma subsampling                       : 4:2:0
    Bit depth                                : 8 bits
    Scan type                                : Progressive
    Bits/(Pixel*Frame)                       : 0.925
    Stream size                              : 1.10 GiB (99%)
    Language                                 : English
    Encoded date                             : UTC 2015-11-12 15:21:48
    Tagged date                              : UTC 2015-11-12 15:21:48
    Color range                              : Limited
    Color primaries                          : BT.709
    Transfer characteristics                 : BT.709
    Matrix coefficients                      : BT.709
    Codec configuration box                  : avcC
    
    Audio
    ID                                       : 2
    Format                                   : AAC LC
    Format/Info                              : Advanced Audio Codec Low Complexity
    Codec ID                                 : mp4a-40-2
    Duration                                 : 3 min 16 s
    Source duration                          : 3 min 16 s
    Bit rate mode                            : Variable
    Bit rate                                 : 317 kb/s
    Maximum bit rate                         : 435 kb/s
    Channel(s)                               : 2 channels
    Channel layout                           : L R
    Sampling rate                            : 48.0 kHz
    Frame rate                               : 46.875 FPS (1024 SPF)
    Compression mode                         : Lossy
    Stream size                              : 7.43 MiB (1%)
    Source stream size                       : 7.43 MiB (1%)
    Language                                 : English
    Encoded date                             : UTC 2015-11-12 15:21:48
    Tagged date                              : UTC 2015-11-12 15:21:48


    Hidden Content:
    You must reply before you can see the hidden data contained here.
     
  2. Loading...


  3. Honglong

    Honglong Well-Known Member

    Joined:
    Feb 6, 2020
    Messages:
    1,243
    Likes Received:
    76
    thanks
     
  4. Mayiti

    Mayiti Well-Known Member

    Joined:
    Aug 20, 2020
    Messages:
    1,510
    Likes Received:
    78
    Merci bien
     
  5. plwww

    plwww Well-Known Member

    Joined:
    May 28, 2016
    Messages:
    1,360
    Likes Received:
    114
    thanks
     
  6. noriscout

    noriscout Active Member

    Joined:
    Apr 26, 2017
    Messages:
    538
    Likes Received:
    197
    Thanks, friendugan
     
  7. sumon44

    sumon44 Member

    Joined:
    Dec 22, 2020
    Messages:
    434
    Likes Received:
    8
    thanks
     
  8. alexstarstruck

    alexstarstruck Active Member

    Joined:
    Oct 7, 2020
    Messages:
    773
    Likes Received:
    42
    thanksssss
     
  9. withcap

    withcap Well-Known Member

    Joined:
    Oct 29, 2013
    Messages:
    3,879
    Likes Received:
    695
    Thanks!
     
  10. Viitrex

    Viitrex Well-Known Member

    Joined:
    Mar 26, 2016
    Messages:
    1,076
    Likes Received:
    56
    thanks
     
  11. kursat99

    kursat99 Member

    Joined:
    Jun 2, 2019
    Messages:
    162
    Likes Received:
    14
  12. hemunshu

    hemunshu Member

    Joined:
    Feb 12, 2016
    Messages:
    455
    Likes Received:
    5
    jjjjjjjj
     
  13. shahan

    shahan Member

    Joined:
    Jul 21, 2021
    Messages:
    55
    Likes Received:
    1
  14. jusor

    jusor Well-Known Member

    Joined:
    Sep 16, 2019
    Messages:
    2,014
    Likes Received:
    35
    Excellent post. Thanks