FEED Global Citizen Live Festival (2021) FEED 1080i HDTV MPA2.0 H.264-ilya2129

Discussion in 'HD Live Performances' started by melodie, Oct 23, 2021.

  1. melodie

    melodie Well-Known Member V . I . P. Uploader

    Joined:
    Dec 29, 2020
    Messages:
    2,203
    Likes Received:
    10,320
    Global Citizen Live Festival (2021) FEED 1080i HDTV MPA2.0 H.264-ilya2129

    [​IMG]


    Format : MPEG-TS
    File size : 98.0 GiB
    Duration : 23 h 16 min
    Overall bit rate mode : Variable
    Overall bit rate : 10.0 Mb/s

    Video
    ID : 208 (0xD0)
    Menu ID : 1 (0x1)
    Format : AVC
    Format/Info : Advanced Video Codec
    Format profile : Main@L4
    Format settings : CABAC / 4 Ref Frames
    Format settings, CABAC : Yes
    Format settings, Reference : 4 frames
    Format settings, GOP : M=4, N=24
    Codec ID : 27
    Duration : 23 h 16 min
    Bit rate : 8 773 kb/s
    Width : 1 920 pixels
    Height : 1 080 pixels
    Display aspect ratio : 16:9
    Frame rate : 25.000 FPS
    Color space : YUV
    Chroma subsampling : 4:2:0
    Bit depth : 8 bits
    Scan type : Interlaced
    Scan type, store method : Separated fields
    Scan order : Top Field First
    Bits/(Pixel*Frame) : 0.169
    Stream size : 85.6 GiB (87%)
    Color range : Limited
    Color primaries : BT.709
    Transfer characteristics : BT.709
    Matrix coefficients : BT.709

    Audio #1
    ID : 256 (0x100)
    Menu ID : 1 (0x1)
    Format : MPEG Audio
    Format version : Version 1
    Format profile : Layer 2
    Format settings : Dual mono
    Codec ID : 3
    Duration : 23 h 16 min
    Bit rate mode : Constant
    Bit rate : 192 kb/s
    Channel(s) : 2 channels
    Sampling rate : 48.0 kHz
    Frame rate : 41.667 FPS (1152 SPF)
    Compression mode : Lossy
    Delay relative to video : -40 ms
    Stream size : 1.87 GiB (2%)
    Language : English

    Audio #2
    ID : 257 (0x101)
    Menu ID : 1 (0x1)
    Format : MPEG Audio
    Format version : Version 1
    Format profile : Layer 2
    Format settings : Dual mono
    Codec ID : 3
    Duration : 23 h 16 min
    Bit rate mode : Constant
    Bit rate : 192 kb/s
    Channel(s) : 2 channels
    Sampling rate : 48.0 kHz
    Frame rate : 41.667 FPS (1152 SPF)
    Compression mode : Lossy
    Delay relative to video : -40 ms
    Stream size : 1.87 GiB (2%)
    Language : English

    Audio #3
    ID : 258 (0x102)
    Menu ID : 1 (0x1)
    Format : MPEG Audio
    Format version : Version 1
    Format profile : Layer 2
    Format settings : Dual mono
    Codec ID : 3
    Duration : 23 h 16 min
    Bit rate mode : Constant
    Bit rate : 192 kb/s
    Channel(s) : 2 channels
    Sampling rate : 48.0 kHz
    Frame rate : 41.667 FPS (1152 SPF)
    Compression mode : Lossy
    Delay relative to video : -40 ms
    Stream size : 1.87 GiB (2%)
    Language : English

    Audio #4
    ID : 259 (0x103)
    Menu ID : 1 (0x1)
    Format : MPEG Audio
    Format version : Version 1
    Format profile : Layer 2
    Format settings : Dual mono
    Codec ID : 3
    Duration : 23 h 16 min
    Bit rate mode : Constant
    Bit rate : 192 kb/s
    Channel(s) : 2 channels
    Sampling rate : 48.0 kHz
    Frame rate : 41.667 FPS (1152 SPF)
    Compression mode : Lossy
    Delay relative to video : -40 ms
    Stream size : 1.87 GiB (2%)
    Language : English


    ..::SETLiST::..
    New York City: Performances by

    Coldplay
    Billie Eilish
    Camila Cabello
    Jennifer Lopez
    Lizzo
    Meek Mill
    Shawn Mendes
    Alessia Cara
    Burna Boy
    Cyndi Lauper
    Jon Batiste
    Lang Lang
    Amber Ruffin
    Andy Cohen
    Billy Porter
    Bonang Matheba
    Bridget Moynahan
    Connie Britton
    Deborra-lee Furness
    Desus Nice and The Kid Mero
    Dikembe Mutombo
    Katie Holmes
    Nomzamo Mbatha
    Padma Lakshmi
    Rachel Brosnahan
    Skip Marley
    Tan France

    Paris: Performances by
    Ed Sheeran
    Elton John
    Black Eyed Peas
    Christine and the Queens
    Doja Cat
    Måneskin
    Angélique Kidjo
    Charlie Puth
    Fatma Said
    Carmen Ejogo and Drew McIntyre

    Los Angeles: Performances by
    Stevie Wonder
    Adam Lambert
    Chloe x Halle
    Demi Lovato
    H.E.R.
    Migos
    ONEREPUBLIC
    Ozuna
    The Lumineers
    5 Seconds of Summer
    JoJo
    Joseph Gordon-Levitt
    Michaela Jaé Rodriguez
    Maggie Q
    Scott Evans

    London:
    Duran Duran
    Kylie Minogue
    Nile Rodgers and ChicRag’n’Bone Man

    Lagos: Performances by
    Femi Kuti
    Davido
    Tiwa Savage
    Made Kuti
    Ebuka Obi-Uchendu and Nancy Isime

    Rio de Janeiro: Performances by
    Alok
    Criolo
    Liniker
    Mart’nália
    Mapu
    Aldeia Mutum of the Yawanawa
    Owera (Kunumi MC)
    Tropkillaz and Mosquito
    Dedé Teicher

    Sydney: Performance by
    Delta Goodrem
    Celeste Barber and Cathy Freeman

    Mumbai: Performances by
    Ajay-Atul
    Badshah featuring Aastha Gill
    Amit Trivedi
    Tanishk Bagchi
    Zara Khan
    Nikhita Gandhi
    Yasser Desai
    Anil Kapoor


    Hidden Content:
    You must either reply or click 'Like' to see the hidden information contained here.
    CAPPER @ilya2129
     
    BYTOMME, rkn9, bigproblem11 and 38 others like this.
  2. Loading...


  3. bellastory

    bellastory Well-Known Member

    Joined:
    Sep 16, 2020
    Messages:
    478
    Likes Received:
    383
    Thanks
     
    melodie likes this.
  4. lightyy123

    lightyy123 Active Member

    Joined:
    Mar 15, 2021
    Messages:
    939
    Likes Received:
    212
    thanks!!
     
    melodie likes this.
  5. channel003

    channel003 Well-Known Member

    Joined:
    Nov 23, 2013
    Messages:
    949
    Likes Received:
    634
    melodie likes this.
  6. amirdvb

    amirdvb Well-Known Member

    Joined:
    Feb 1, 2015
    Messages:
    1,147
    Likes Received:
    86
    tnxxxxx
     
    melodie likes this.
  7. detroit1

    detroit1 Well-Known Member

    Joined:
    Jan 6, 2014
    Messages:
    4,819
    Likes Received:
    944
    thank you
     
  8. fr7zzy

    fr7zzy Member

    Joined:
    Apr 17, 2020
    Messages:
    56
    Likes Received:
    42
    thanks so much
     
    melodie likes this.
  9. Moiseee97

    Moiseee97 New Member

    Joined:
    Oct 17, 2021
    Messages:
    27
    Likes Received:
    6
    thanks
     
    melodie likes this.
  10. lavender18

    lavender18 Member

    Joined:
    Jul 13, 2019
    Messages:
    62
    Likes Received:
    6
    thank you :love:
     
    melodie likes this.
  11. tarek

    tarek Active Member

    Joined:
    Jun 17, 2021
    Messages:
    379
    Likes Received:
    33
    thanks!!
     
    melodie likes this.
  12. stephend2000

    stephend2000 Active Member

    Joined:
    Sep 26, 2016
    Messages:
    162
    Likes Received:
    41
    thanks
     
    melodie likes this.
  13. RAVIXX

    RAVIXX Well-Known Member V . I . P. Uploader

    Joined:
    Feb 20, 2014
    Messages:
    6,970
    Likes Received:
    105,017
    100G!!! :shocked:
    Jesus, thank u so much!! <3
     
    BT6903, keven and melodie like this.
  14. JPGAmbrosino

    JPGAmbrosino Well-Known Member

    Joined:
    Jul 30, 2016
    Messages:
    5,850
    Likes Received:
    273
    TXSSSSSSSSSSSSSSSS
     
  15. Fad

    Fad Well-Known Member

    Joined:
    Aug 22, 2018
    Messages:
    1,292
    Likes Received:
    424
    @melodie - fraudster! He steals videos on other forums and writes that he is their author. Worst of all is that his 2 videos violate the rights of TV channels.
    These violations are already sent to the cyber police.
     
  16. 1stb2s

    1stb2s Active Member

    Joined:
    Aug 24, 2019
    Messages:
    749
    Likes Received:
    71
    AWESOME PQ :) THANKS A LOT :love:
     
  17. cvgff

    cvgff Member

    Joined:
    May 4, 2018
    Messages:
    888
    Likes Received:
    20
    thank
     
  18. multimediafm

    multimediafm Well-Known Member Archiver Donor

    Joined:
    Mar 27, 2014
    Messages:
    21,785
    Likes Received:
    2,801
    Thanks:)
     
    melodie likes this.
  19. dxd1412

    dxd1412 Active Member

    Joined:
    Jan 13, 2021
    Messages:
    859
    Likes Received:
    42
    Thanks
     
  20. Flight643

    Flight643 Member

    Joined:
    Dec 14, 2018
    Messages:
    104
    Likes Received:
    15
    Wooo
    wholy shit!!!
     
  21. keven

    keven Well-Known Member

    Joined:
    Apr 1, 2015
    Messages:
    1,739
    Likes Received:
    117
    OMG!!!