DVD George Michael - Twenty-Five Club Mix (Promo Only) [VOB]

Discussion in 'SD' started by claudio1301, Apr 30, 2020.

  1. claudio1301

    claudio1301 Well-Known Member Uploader V . I . P.

    Joined:
    Oct 2, 2018
    Threads:
    1,768
    Messages:
    2,068
    Likes Received:
    5,994
    [​IMG]
    Code:
    General
    Complete name                  : George Michael - Twenty-Five Club Mix (Promo Only).vob
    Format                         : MPEG-PS
    File size                      : 206 MiB
    Duration                       : 4 min 0 s
    Overall bit rate mode          : Variable
    Overall bit rate               : 7 170 kb/s
    
    Video
    ID                             : 224 (0xE0)
    Format                         : MPEG Video
    Format version                 : Version 2
    Format profile                 : Main@Main
    Format settings                : CustomMatrix / BVOP
    Format settings, BVOP          : Yes
    Format settings, Matrix        : Custom
    Format settings, GOP           : Variable
    Format settings, picture struc : Frame
    Duration                       : 4 min 0 s
    Bit rate mode                  : Variable
    Bit rate                       : 5 491 kb/s
    Maximum bit rate               : 8 000 kb/s
    Width                          : 720 pixels
    Height                         : 480 pixels
    Display aspect ratio           : 4:3
    Frame rate                     : 29.970 (30000/1001) FPS
    Standard                       : NTSC
    Color space                    : YUV
    Chroma subsampling             : 4:2:0
    Bit depth                      : 8 bits
    Scan type                      : Interlaced
    Scan order                     : Top Field First
    Compression mode               : Lossy
    Bits/(Pixel*Frame)             : 0.530
    Time code of first frame       : 00:00:00:00
    Time code source               : Group of pictures header
    GOP, Open/Closed               : Closed
    Stream size                    : 158 MiB (77%)
    Color primaries                : BT.601 NTSC
    Transfer characteristics       : BT.601
    Matrix coefficients            : BT.601
    
    Audio
    ID                             : 189 (0xBD)-160 (0xA0)
    Format                         : PCM
    Format settings                : Big / Signed
    Muxing mode                    : DVD-Video
    Duration                       : 4 min 0 s
    Bit rate mode                  : Constant
    Bit rate                       : 1 536 kb/s
    Channel(s)                     : 2 channels
    Sampling rate                  : 48.0 kHz
    Bit depth                      : 16 bits
    Stream size                    : 44.1 MiB (21%)
    
    Menu
    Host: Mediafire
    Hidden Content:
    You must reply before you can see the hidden data contained here.
     
    Last edited: Apr 6, 2021
  2. Loading...


  3. kowalski2016

    kowalski2016 Active Member

    Joined:
    May 18, 2016
    Threads:
    1
    Messages:
    969
    Likes Received:
    52
    thank you!
     
  4. newkomrad

    newkomrad Well-Known Member

    Joined:
    Jul 12, 2019
    Threads:
    0
    Messages:
    1,087
    Likes Received:
    53
    Thanks!
     
  5. rkgmade

    rkgmade Well-Known Member

    Joined:
    Sep 29, 2016
    Threads:
    0
    Messages:
    4,894
    Likes Received:
    420
    THANKS
     
  6. isaac003

    isaac003 Active Member

    Joined:
    Oct 3, 2016
    Threads:
    4
    Messages:
    519
    Likes Received:
    95
    Thank you!
     
  7. mert_tarioglu

    mert_tarioglu Member

    Joined:
    Apr 5, 2017
    Threads:
    1
    Messages:
    84
    Likes Received:
    1
  8. araujoneto

    araujoneto Well-Known Member

    Joined:
    Aug 6, 2020
    Threads:
    34
    Messages:
    731
    Likes Received:
    354
    thank you
     
  9. Denishx

    Denishx Member

    Joined:
    Aug 4, 2014
    Threads:
    0
    Messages:
    450
    Likes Received:
    9
    thanks
     
  10. sulik

    sulik Member

    Joined:
    Oct 5, 2019
    Threads:
    0
    Messages:
    655
    Likes Received:
    9
    Member
     
  11. marehardy88

    marehardy88 Active Member

    Joined:
    Mar 3, 2017
    Threads:
    0
    Messages:
    975
    Likes Received:
    48
  12. Artik

    Artik Well-Known Member

    Joined:
    Apr 16, 2018
    Threads:
    41
    Messages:
    1,689
    Likes Received:
    48
    Thanks!
     
  13. jparra

    jparra Well-Known Member

    Joined:
    Dec 1, 2020
    Threads:
    0
    Messages:
    1,448
    Likes Received:
    43
    Thanks
     
  14. lu_metal

    lu_metal Member

    Joined:
    Jul 29, 2020
    Threads:
    1
    Messages:
    70
    Likes Received:
    0
  15. carlugra

    carlugra Member

    Joined:
    Mar 22, 2018
    Threads:
    0
    Messages:
    247
    Likes Received:
    3
    thanks
     
  16. Wes Halliwell

    Wes Halliwell Well-Known Member

    Joined:
    Dec 17, 2014
    Threads:
    2
    Messages:
    5,352
    Likes Received:
    445
    Thanks / Obrigado
     
  17. Junaidi

    Junaidi New Member

    Joined:
    Jun 27, 2021
    Threads:
    0
    Messages:
    15
    Likes Received:
    1
    Thank you for sharing
     
  18. master468

    master468 Well-Known Member

    Joined:
    Feb 1, 2017
    Threads:
    0
    Messages:
    1,542
    Likes Received:
    195
  19. gm1981

    gm1981 Active Member

    Joined:
    Apr 1, 2017
    Threads:
    2
    Messages:
    874
    Likes Received:
    55
    thanks
     
  20. Maxmahoney

    Maxmahoney Well-Known Member

    Joined:
    May 23, 2019
    Threads:
    3
    Messages:
    1,058
    Likes Received:
    32
  21. Maxmahoney

    Maxmahoney Well-Known Member

    Joined:
    May 23, 2019
    Threads:
    3
    Messages:
    1,058
    Likes Received:
    32