HDTV Foo Fighters - 2017-09-16 - MTV World Stage, BARTS, Barcelona, Spain - MTV Spain 1080i H.264 MP2 - KhAoS182

Discussion in 'HD Live Performances' started by KhAoS182, Nov 28, 2021.

  1. KhAoS182

    KhAoS182 KhAoS182 Bootlegs

    Joined:
    Jun 15, 2018
    Messages:
    147
    Likes Received:
    21
    Foo Fighters - 2017-09-16 - MTV World Stage, BARTS, Barcelona, Spain

    [​IMG]
    Format : MPEG-TS
    File size : 5.06 GiB
    Duration : 43 min 19 s
    Overall bit rate mode : Variable
    Overall bit rate : 16.7 Mb/s

    Video
    ID : 1601 (0x641)
    Menu ID : 1 (0x1)
    Format : AVC
    Format/Info : Advanced Video Codec
    Format profile : Main@L4
    Format settings : CABAC / 2 Ref Frames
    Format settings, CABAC : Yes
    Format settings, Reference frames : 2 frames
    Format settings, GOP : M=3, N=12
    Codec ID : 27
    Duration : 43 min 19 s
    Bit rate : 15.5 Mb/s
    Width : 1 920 pixels
    Height : 1 080 pixels
    Display aspect ratio : 16:9
    Frame rate : 25.000 FPS
    Color space : YUV
    Chroma subsampling : 4:2:0
    Bit depth : 8 bits
    Scan type : Interlaced
    Scan type, store method : Separated fields
    Scan order : Top Field First
    Bits/(Pixel*Frame) : 0.299
    Stream size : 4.73 GiB (94%)
    Writing library : x264 core 160 r3000
    Encoding settings : cabac=1 / ref=2 / deblock=1:0:0 / analyse=0x1:0x111 / me=hex / subme=4 / psy=1 / psy_rd=1.00:0.00 / mixed_ref=0 / me_range=16 / chroma_me=1 / trellis=1 / 8x8dct=0 / cqm=0 / deadzone=21,11 / fast_pskip=1 / chroma_qp_offset=0 / threads=8 / lookahead_threads=2 / sliced_threads=0 / nr=0 / decimate=1 / interlaced=tff / bluray_compat=0 / constrained_intra=0 / bframes=3 / b_pyramid=2 / b_adapt=1 / b_bias=0 / direct=1 / weightb=1 / open_gop=0 / weightp=0 / keyint=12 / keyint_min=1 / scenecut=0 / intra_refresh=0 / rc_lookahead=12 / rc=abr / mbtree=1 / bitrate=15499 / ratetol=1.0 / qcomp=0.60 / qpmin=0 / qpmax=69 / qpstep=4 / vbv_maxrate=16000 / vbv_bufsize=8000 / nal_hrd=none / filler=0 / ip_ratio=1.40 / aq=1:1.00

    Audio
    ID : 1602 (0x642)
    Menu ID : 1 (0x1)
    Format : MPEG Audio
    Format version : Version 1
    Format profile : Layer 2
    Codec ID : 3
    Duration : 43 min 19 s
    Bit rate mode : Constant
    Bit rate : 256 kb/s
    Channel(s) : 2 channels
    Sampling rate : 48.0 kHz
    Frame rate : 41.667 FPS (1152 SPF)
    Compression mode : Lossy
    Stream size : 79.3 MiB (2%)
    Language : English

    Setlist:

    01. Introduce
    02. All My Life
    03. The Sky Is A Neighbourhood
    04. Interview
    05. The Line
    06. Interview
    07. Monkey Wrench
    08. Interview
    09. Run
    10. Times Like These
    11. Best Of You
    12. Everlong

    Lineage:
    Movistar ARRIS VIP1113 > Hauppauge HD PVR 60 > Capture4ME > VideoReDo TVSuite 6.62.4.827

    Hidden Content:
    You must reply before you can see the hidden data contained here.
     
    Last edited: Nov 28, 2021
    blasphemiancharlatan and 1stb2s like this.
  2. Loading...


  3. weeniebeenie

    weeniebeenie Active Member

    Joined:
    Jul 15, 2017
    Messages:
    59
    Likes Received:
    140
  4. jeremywho

    jeremywho Active Member

    Joined:
    Dec 11, 2015
    Messages:
    810
    Likes Received:
    141
    Thank you.
     
  5. pdannis

    pdannis Active Member Donor

    Joined:
    Jun 1, 2014
    Messages:
    496
    Likes Received:
    70
    Thanks
     
  6. 1stb2s

    1stb2s Active Member

    Joined:
    Aug 24, 2019
    Messages:
    783
    Likes Received:
    76
    THANKS
     
  7. LiveHD

    LiveHD Active Member

    Joined:
    Apr 22, 2016
    Messages:
    523
    Likes Received:
    87
    Thanks!
     
  8. blasphemiancharlatan

    blasphemiancharlatan Member

    Joined:
    May 19, 2021
    Messages:
    31
    Likes Received:
    3