Fifth Harmony Ft. Ty Dolla $ign - Work From Home (MTV.Hits-HDTV 1080i-DD2.0-IboYLDz) - HDMania

Discussion in 'MTV IDOL' started by By.YLDz, Apr 14, 2016.

  1. By.YLDz

    By.YLDz Taylor Swift Fan.. Capper

    Joined:
    Oct 7, 2013
    Messages:
    767
    Likes Received:
    8,184
    CappeD IboYLDz

    [​IMG] [​IMG] [​IMG] [​IMG] [​IMG] [​IMG] [​IMG] [​IMG] [​IMG] [​IMG]

    Format : MPEG-TS
    File size : 147 MiB
    Duration : 3mn 35s
    Overall bit rate mode : Variable
    Overall bit rate : 5 724 Kbps

    Video
    ID : 310 (0x136)
    Menu ID : 8003 (0x1F43)
    Format : AVC
    Format/Info : Advanced Video Codec
    Format profile : High@L4
    Format settings, CABAC : Yes
    Format settings, ReFrames : 4 frames
    Format settings, GOP : M=8, N=24
    Codec ID : 27
    Duration : 3mn 35s
    Bit rate : 5 247 Kbps
    Width : 1 920 pixels
    Height : 1 080 pixels
    Display aspect ratio : 16:9
    Frame rate : 25.000 fps
    Standard : Component
    Color space : YUV
    Chroma subsampling : 4:2:0
    Bit depth : 8 bits
    Scan type : MBAFF
    Scan type, store method : Interleaved fields
    Scan order : Top Field First
    Bits/(Pixel*Frame) : 0.101
    Stream size : 135 MiB (92%)
    Color range : Limited
    Color primaries : BT.709
    Transfer characteristics : BT.709
    Matrix coefficients : BT.709

    Audio
    ID : 321 (0x141)
    Menu ID : 8003 (0x1F43)
    Format : AC-3
    Format/Info : Audio Coding 3
    Mode extension : CM (complete main)
    Format settings, Endianness : Big
    Codec ID : 6
    Duration : 3mn 35s
    Bit rate mode : Constant
    Bit rate : 192 Kbps
    Channel(s) : 2 channels
    Channel positions : Front: L R
    Sampling rate : 48.0 KHz
    Frame rate : 31.250 fps (1536 spf)
    Compression mode : Lossy
    Delay relative to video : -80ms
    Stream size : 4.93 MiB (3%)
    Language : French


    Hidden Content:
    You must either reply or click 'Like' to see the hidden information contained here.
    Rar Pass: IboYLDz
     
    zima, florianblanc, zuluka and 7 others like this.
  2. RAVIXX

    RAVIXX Well-Known Member V . I . P. Uploader

    Joined:
    Feb 20, 2014
    Messages:
    7,595
    Likes Received:
    110,077
    Thank you so much! :love::super:
     
  3. Dreamer

    Dreamer ♫ SUPER MODERATОR ♫ Staff Member Super Moderator V . I . P. Uploader

    Joined:
    Dec 4, 2014
    Messages:
    3,455
    Likes Received:
    15,059
    Thank you so much! :)
     
  4. rhea

    rhea Well-Known Member

    Joined:
    Jan 6, 2014
    Messages:
    12,281
    Likes Received:
    2,471
    thank you so much! :)
     
  5. Joseph

    Joseph Active Member

    Joined:
    Dec 10, 2013
    Messages:
    793
    Likes Received:
    238
    thank you
     
  6. Cyberbob

    Cyberbob Member

    Joined:
    May 27, 2016
    Messages:
    692
    Likes Received:
    12
    thanks!
     
  7. slill

    slill Active Member

    Joined:
    Jul 25, 2014
    Messages:
    1,188
    Likes Received:
    21
    thanks
     
  8. dangtungson

    dangtungson Active Member

    Joined:
    Feb 22, 2014
    Messages:
    711
    Likes Received:
    78
    thank you so much!
     
  9. dangtungson

    dangtungson Active Member

    Joined:
    Feb 22, 2014
    Messages:
    711
    Likes Received:
    78
    thank you so much!
     
    William Playsson II likes this.
  10. Regis

    Regis Well-Known Member

    Joined:
    Jul 14, 2015
    Messages:
    1,547
    Likes Received:
    102
    Thank you so much! :)
     
  11. Pedro16

    Pedro16 Active Member

    Joined:
    Jan 16, 2017
    Messages:
    370
    Likes Received:
    31
    Thanks!!!
     
  12. ETAOI

    ETAOI Member

    Joined:
    Feb 13, 2017
    Messages:
    676
    Likes Received:
    3
    !!!!!!!!!!!
     
  13. ulygatore

    ulygatore Well-Known Member

    Joined:
    Jun 29, 2017
    Messages:
    2,960
    Likes Received:
    150