DVD Enrique Iglesias - Escape x02 (Original and Remix) [VOB]

Discussion in 'SD' started by claudio1301, Aug 25, 2020.

  1. claudio1301

    claudio1301 Well-Known Member Uploader V . I . P.

    Joined:
    Oct 2, 2018
    Threads:
    1,768
    Messages:
    2,068
    Likes Received:
    5,994
    [​IMG]
    Code:
    General
    Complete name                  : Enrique Iglesias - Escape (Clean).vob
    Format                         : MPEG-PS
    File size                      : 183 MiB
    Duration                       : 3 min 31 s
    Overall bit rate mode          : Variable
    Overall bit rate               : 7 245 kb/s
    
    Video
    ID                             : 224 (0xE0)
    Format                         : MPEG Video
    Format version                 : Version 2
    Format profile                 : Main@Main
    Format settings                : CustomMatrix / BVOP
    Format settings, BVOP          : Yes
    Format settings, Matrix        : Custom
    Format settings, GOP           : M=3, N=15
    Format settings, picture struc : Frame
    Duration                       : 3 min 31 s
    Bit rate mode                  : Variable
    Bit rate                       : 6 909 kb/s
    Maximum bit rate               : 7 000 kb/s
    Width                          : 720 pixels
    Height                         : 480 pixels
    Display aspect ratio           : 4:3
    Frame rate                     : 29.970 (30000/1001) FPS
    Standard                       : NTSC
    Color space                    : YUV
    Chroma subsampling             : 4:2:0
    Bit depth                      : 8 bits
    Scan type                      : Interlaced
    Scan order                     : Top Field First
    Compression mode               : Lossy
    Bits/(Pixel*Frame)             : 0.667
    Time code of first frame       : 00:00:00:00
    Time code source               : Group of pictures header
    GOP, Open/Closed               : Closed
    Stream size                    : 174 MiB (95%)
    Matrix coefficients            : BT.601
    
    Audio
    ID                             : 189 (0xBD)-128 (0x80)
    Format                         : AC-3
    Format/Info                    : Audio Coding 3
    Commercial name                : Dolby Digital
    Muxing mode                    : DVD-Video
    Duration                       : 3 min 31 s
    Bit rate mode                  : Constant
    Bit rate                       : 192 kb/s
    Channel(s)                     : 2 channels
    Channel layout                 : L R
    Sampling rate                  : 48.0 kHz
    Frame rate                     : 31.250 FPS (1536 SPF)
    Compression mode               : Lossy
    Stream size                    : 4.84 MiB (3%)
    Service kind                   : Complete Main
    Host: Mediafire
    Hidden Content:
    You must reply before you can see the hidden data contained here.
    [​IMG]
    Code:
    General
    Complete name                  : Enrique Iglesias - Escape (Thunderpuss Club Edit) (Promo Only).vob
    Format                         : MPEG-PS
    File size                      : 220 MiB
    Duration                       : 3 min 31 s
    Overall bit rate mode          : Variable
    Overall bit rate               : 8 704 kb/s
    
    Video
    ID                             : 224 (0xE0)
    Format                         : MPEG Video
    Format version                 : Version 2
    Format profile                 : Main@Main
    Format settings                : BVOP
    Format settings, BVOP          : Yes
    Format settings, Matrix        : Default
    Format settings, GOP           : M=3, N=13
    Format settings, picture struc : Frame
    Duration                       : 3 min 31 s
    Bit rate mode                  : Variable
    Bit rate                       : 6 995 kb/s
    Maximum bit rate               : 7 800 kb/s
    Width                          : 720 pixels
    Height                         : 480 pixels
    Display aspect ratio           : 4:3
    Frame rate                     : 29.970 (30000/1001) FPS
    Standard                       : NTSC
    Color space                    : YUV
    Chroma subsampling             : 4:2:0
    Bit depth                      : 8 bits
    Scan type                      : Interlaced
    Scan order                     : Top Field First
    Compression mode               : Lossy
    Bits/(Pixel*Frame)             : 0.675
    Time code of first frame       : 00:00:00:00
    Time code source               : Group of pictures header
    GOP, Open/Closed               : Open
    Stream size                    : 177 MiB (80%)
    Color primaries                : BT.601 NTSC
    Transfer characteristics       : BT.601
    Matrix coefficients            : BT.601
    
    Audio
    ID                             : 189 (0xBD)-160 (0xA0)
    Format                         : PCM
    Format settings                : Big / Signed
    Muxing mode                    : DVD-Video
    Duration                       : 3 min 31 s
    Bit rate mode                  : Constant
    Bit rate                       : 1 536 kb/s
    Channel(s)                     : 2 channels
    Sampling rate                  : 48.0 kHz
    Bit depth                      : 16 bits
    Stream size                    : 38.8 MiB (18%)
    
    Menu
    Hidden Content:
    You must reply before you can see the hidden data contained here.
     
    vico22 likes this.
  2. Loading...


  3. FrankBat

    FrankBat New Member

    Joined:
    Aug 25, 2020
    Threads:
    0
    Messages:
    1
    Likes Received:
    0
  4. kowalski2016

    kowalski2016 Active Member

    Joined:
    May 18, 2016
    Threads:
    1
    Messages:
    969
    Likes Received:
    52
    thank you!
     
  5. JPGAmbrosino

    JPGAmbrosino Well-Known Member

    Joined:
    Jul 30, 2016
    Threads:
    9
    Messages:
    7,109
    Likes Received:
    409
  6. Andy h

    Andy h Active Member

    Joined:
    Sep 5, 2019
    Threads:
    1
    Messages:
    397
    Likes Received:
    26
    gooood
     
  7. Utkarsh Iglesias

    Utkarsh Iglesias Enrique Iglesias

    Joined:
    Sep 7, 2020
    Threads:
    26
    Messages:
    257
    Likes Received:
    40
    Thank you
     
  8. Denishx

    Denishx Member

    Joined:
    Aug 4, 2014
    Threads:
    0
    Messages:
    450
    Likes Received:
    9
    thanks
     
    Utkarsh Iglesias likes this.
  9. revili181920

    revili181920 Well-Known Member

    Joined:
    Apr 16, 2020
    Threads:
    13
    Messages:
    1,460
    Likes Received:
    87
    THANK
     
  10. almuhamah86

    almuhamah86 Active Member

    Joined:
    Sep 1, 2020
    Threads:
    14
    Messages:
    187
    Likes Received:
    47
  11. mert_tarioglu

    mert_tarioglu Member

    Joined:
    Apr 5, 2017
    Threads:
    1
    Messages:
    84
    Likes Received:
    1
  12. ethan03

    ethan03 Active Member

    Joined:
    Dec 9, 2016
    Threads:
    0
    Messages:
    543
    Likes Received:
    43
    Thanks
     
  13. Roque

    Roque Member

    Joined:
    Nov 29, 2020
    Threads:
    0
    Messages:
    288
    Likes Received:
    8
    gracias
     
  14. murdereach

    murdereach Well-Known Member

    Joined:
    Apr 11, 2020
    Threads:
    385
    Messages:
    801
    Likes Received:
    50
  15. vico22

    vico22 Member

    Joined:
    Jan 16, 2021
    Threads:
    0
    Messages:
    864
    Likes Received:
    6
    Gracias
     
  16. thelouddad

    thelouddad Active Member

    Joined:
    Apr 21, 2021
    Threads:
    19
    Messages:
    453
    Likes Received:
    158
    thank you
     
  17. Buti

    Buti Well-Known Member

    Joined:
    Apr 23, 2019
    Threads:
    8
    Messages:
    1,473
    Likes Received:
    47
    Thanks
     
  18. marcelokvety

    marcelokvety Active Member

    Joined:
    Feb 3, 2021
    Threads:
    4
    Messages:
    523
    Likes Received:
    60
  19. mvdler

    mvdler Active Member

    Joined:
    Aug 9, 2021
    Threads:
    0
    Messages:
    670
    Likes Received:
    37
    thanks
     
  20. EDDJ05

    EDDJ05 Member

    Joined:
    Nov 9, 2021
    Threads:
    1
    Messages:
    462
    Likes Received:
    11
    Gracias!
     
  21. rcj

    rcj Well-Known Member

    Joined:
    May 11, 2016
    Threads:
    0
    Messages:
    3,651
    Likes Received:
    369
    thank u