Eminem - Without Me | (MCM Top-HDTV-1080i-DD2.0-IboYLDz)-HDMania

Discussion in 'MCM & MCM Top HD' started by By.YLDz, Feb 11, 2019.

  1. By.YLDz

    By.YLDz Taylor Swift Fan.. Capper

    Joined:
    Oct 7, 2013
    Messages:
    767
    Likes Received:
    8,190
    CappeD IboYLDz

    [​IMG] [​IMG] [​IMG] [​IMG] [​IMG] [​IMG]

    Format : MPEG-TS
    File size : 240 MiB
    Duration : 4 min 57 s
    Overall bit rate mode : Variable
    Overall bit rate : 6 790 kb/s

    Video
    ID : 1310 (0x51E)
    Menu ID : 8713 (0x2209)
    Format : AVC
    Format/Info : Advanced Video Codec
    Format profile : High@L4
    Format settings : CABAC / 4 Ref Frames
    Format settings, CABAC : Yes
    Format settings, ReFrames : 4 frames
    Codec ID : 27
    Duration : 4 min 56 s
    Bit rate : 6 261 kb/s
    Width : 1 920 pixels
    Height : 1 080 pixels
    Display aspect ratio : 16:9
    Frame rate : 25.000 FPS
    Standard : Component
    Color space : YUV
    Chroma subsampling : 4:2:0
    Bit depth : 8 bits
    Scan type : MBAFF
    Scan type, store method : Separated fields
    Scan order : Top Field First
    Bits/(Pixel*Frame) : 0.121
    Stream size : 222 MiB (92%)
    Color range : Limited
    Color primaries : BT.709
    Transfer characteristics : BT.709
    Matrix coefficients : BT.709

    Audio
    ID : 1321 (0x529)
    Menu ID : 8713 (0x2209)
    Format : AC-3
    Format/Info : Audio Coding 3
    Commercial name : Dolby Digital
    Codec ID : 6
    Duration : 4 min 57 s
    Bit rate mode : Constant
    Bit rate : 192 kb/s
    Channel(s) : 2 channels
    Channel layout : L R
    Sampling rate : 48.0 kHz
    Frame rate : 31.250 FPS (1536 SPF)
    Bit depth : 16 bits
    Compression mode : Lossy
    Delay relative to video : -80 ms
    Stream size : 6.80 MiB (3%)
    Language : French
    Service kind : Complete Main


    Hidden Content:
    You must either reply or click 'Like' to see the hidden information contained here.
    Rar Pass: IboYLDz
     
  2. CELOBRAZiL

    CELOBRAZiL Well-Known Member Capper V . I . P. Donor

    Joined:
    Oct 2, 2013
    Messages:
    14,059
    Likes Received:
    51,580
    Thanks! :)
     
  3. nickiexclusive

    nickiexclusive Video Maniac Uploader V . I . P.

    Joined:
    Sep 23, 2014
    Messages:
    3,375
    Likes Received:
    20,096
    seems like your cap is good. pls do more
     
  4. TrendMusic

    TrendMusic Well-Known Member

    Joined:
    Oct 7, 2013
    Messages:
    2,311
    Likes Received:
    291
  5. rvden

    rvden Well-Known Member

    Joined:
    Apr 9, 2017
    Messages:
    1,005
    Likes Received:
    745
    Thank you!
     
  6. rhea

    rhea Well-Known Member

    Joined:
    Jan 6, 2014
    Messages:
    12,292
    Likes Received:
    2,473
    thank you so much
     
  7. carol

    carol Member

    Joined:
    May 13, 2020
    Messages:
    144
    Likes Received:
    0
    gracias
     
  8. universeworld

    universeworld Member

    Joined:
    Feb 27, 2021
    Messages:
    45
    Likes Received:
    0
  9. Vahidvh1

    Vahidvh1 Member

    Joined:
    May 29, 2021
    Messages:
    119
    Likes Received:
    0
    Okhfgi
     
  10. vaxell

    vaxell Member

    Joined:
    Apr 30, 2019
    Messages:
    212
    Likes Received:
    4
    thanks