Eiffel 65 - Blue (Da Be Dee) | (MCM Top-HDTV-1080i-DD2.0-IboYLDz)-HDMania

Discussion in 'MCM & MCM Top HD' started by By.YLDz, Feb 9, 2019.

  1. By.YLDz

    By.YLDz Taylor Swift Fan.. Capper

    Joined:
    Oct 7, 2013
    Messages:
    766
    Likes Received:
    8,114
    CappeD IboYLDz

    [​IMG] [​IMG] [​IMG] [​IMG] [​IMG] [​IMG]

    Format : MPEG-TS
    File size : 152 MiB
    Duration : 3 min 39 s
    Overall bit rate mode : Variable
    Overall bit rate : 5 837 kb/s

    Video
    ID : 1310 (0x51E)
    Menu ID : 8713 (0x2209)
    Format : AVC
    Format/Info : Advanced Video Codec
    Format profile : High@L4
    Format settings : CABAC / 4 Ref Frames
    Format settings, CABAC : Yes
    Format settings, ReFrames : 4 frames
    Format settings, GOP : M=8, N=24
    Codec ID : 27
    Duration : 3 min 39 s
    Bit rate : 5 354 kb/s
    Width : 1 920 pixels
    Height : 1 080 pixels
    Display aspect ratio : 16:9
    Frame rate : 25.000 FPS
    Standard : Component
    Color space : YUV
    Chroma subsampling : 4:2:0
    Bit depth : 8 bits
    Scan type : MBAFF
    Scan type, store method : Separated fields
    Scan order : Top Field First
    Bits/(Pixel*Frame) : 0.103
    Stream size : 140 MiB (92%)
    Color range : Limited
    Color primaries : BT.709
    Transfer characteristics : BT.709
    Matrix coefficients : BT.709

    Audio
    ID : 1321 (0x529)
    Menu ID : 8713 (0x2209)
    Format : AC-3
    Format/Info : Audio Coding 3
    Commercial name : Dolby Digital
    Codec ID : 6
    Duration : 3 min 39 s
    Bit rate mode : Constant
    Bit rate : 192 kb/s
    Channel(s) : 2 channels
    Channel layout : L R
    Sampling rate : 48.0 kHz
    Frame rate : 31.250 FPS (1536 SPF)
    Bit depth : 16 bits
    Compression mode : Lossy
    Stream size : 5.01 MiB (3%)
    Language : French
    Service kind : Complete Main


    Hidden Content:
    You must either reply or click 'Like' to see the hidden information contained here.
    Rar Pass: IboYLDz
     
  2. CELOBRAZiL

    CELOBRAZiL Well-Known Member Capper V . I . P. Donor

    Joined:
    Oct 2, 2013
    Messages:
    13,668
    Likes Received:
    49,730
    Thank you so much! I love this music! :love::love::love: :)
     
    By.YLDz likes this.
  3. TrendMusic

    TrendMusic Well-Known Member

    Joined:
    Oct 7, 2013
    Messages:
    2,309
    Likes Received:
    291
  4. rvden

    rvden Well-Known Member

    Joined:
    Apr 9, 2017
    Messages:
    1,005
    Likes Received:
    745
    Thank you!
     
  5. rhea

    rhea Well-Known Member

    Joined:
    Jan 6, 2014
    Messages:
    12,187
    Likes Received:
    2,440
    thank you so much
     
  6. redone

    redone Member

    Joined:
    Mar 2, 2019
    Messages:
    324
    Likes Received:
    5
    thankkks
     
  7. Cam-ri

    Cam-ri Active Member

    Joined:
    Mar 5, 2019
    Messages:
    169
    Likes Received:
    34
    Thank you!
     
  8. ramazanksmc

    ramazanksmc New Member

    Joined:
    Nov 7, 2017
    Messages:
    10
    Likes Received:
    0
  9. Malitaxd

    Malitaxd Active Member

    Joined:
    Jun 21, 2019
    Messages:
    595
    Likes Received:
    40
    graciass
     
  10. wucc5411

    wucc5411 New Member

    Joined:
    Apr 5, 2020
    Messages:
    1
    Likes Received:
    0
    thanks
     
  11. karlitovich

    karlitovich Member

    Joined:
    Apr 12, 2020
    Messages:
    145
    Likes Received:
    6
  12. mack

    mack Member

    Joined:
    Jan 18, 2021
    Messages:
    175
    Likes Received:
    0
    dgewrrr
     
  13. mb190ew201

    mb190ew201 Active Member

    Joined:
    Aug 4, 2020
    Messages:
    419
    Likes Received:
    29
  14. mg2244

    mg2244 Active Member

    Joined:
    Aug 12, 2014
    Messages:
    837
    Likes Received:
    171
    Thank you!