Dove Cameron - So Good [ProRes 1080] idfrann!

Discussion in 'PRORES HD' started by fstambuk, Jul 21, 2021.

  1. fstambuk

    fstambuk Follow me on instagram: idfrann :) V . I . P.

    Joined:
    Sep 21, 2014
    Messages:
    1,990
    Likes Received:
    6,185
    [​IMG]

    Code:
    Format                                   : MPEG-4
    Format profile                           : QuickTime
    Codec ID                                 : qt   2005.03 (qt  )
    File size                                : 3.40 GiB
    Duration                                 : 2 min 41 s
    Overall bit rate mode                    : Variable
    Overall bit rate                         : 181 Mb/s
    Encoded date                             : UTC 2019-10-29 04:04:15
    Tagged date                              : UTC 2019-10-29 04:20:40
    Writing library                          : Apple QuickTime
    TIM                                      : 00:00:00:00
    TSC                                      : 24000
    TSZ                                      : 1001
    
    Video
    ID                                       : 1
    Format                                   : ProRes
    Format version                           : Version 0
    Format profile                           : 422 HQ
    Codec ID                                 : apch
    Duration                                 : 2 min 41 s
    Bit rate mode                            : Variable
    Bit rate                                 : 180 Mb/s
    Width                                    : 1 920 pixels
    Height                                   : 1 080 pixels
    Display aspect ratio                     : 16:9
    Frame rate mode                          : Constant
    Frame rate                               : 23.976 (24000/1001) FPS
    Color space                              : YUV
    Chroma subsampling                       : 4:2:2
    Scan type                                : Progressive
    Bits/(Pixel*Frame)                       : 3.611
    Stream size                              : 3.37 GiB (99%)
    Writing library                          : Apple
    Language                                 : English
    Encoded date                             : UTC 2019-10-29 04:04:15
    Tagged date                              : UTC 2019-10-29 04:04:15
    Color primaries                          : BT.709
    Transfer characteristics                 : BT.709
    Matrix coefficients                      : BT.709
    
    Audio
    ID                                       : 2
    Format                                   : PCM
    Format settings                          : Little / Signed
    Codec ID                                 : sowt
    Duration                                 : 2 min 41 s
    Bit rate mode                            : Constant
    Bit rate                                 : 1 536 kb/s
    Channel(s)                               : 2 channels
    Channel layout                           : L R
    Sampling rate                            : 48.0 kHz
    Bit depth                                : 16 bits
    Stream size                              : 29.5 MiB (1%)
    Language                                 : English
    Encoded date                             : UTC 2019-10-29 04:04:15
    Tagged date                              : UTC 2019-10-29 04:04:15
    
    Other
    ID                                       : 3
    Type                                     : Time code
    Format                                   : QuickTime TC
    Duration                                 : 2 min 41 s
    Frame rate                               : 23.976 (24000/1001) FPS
    Time code of first frame                 : 00:00:00:00
    Time code, striped                       : Yes
    Language                                 : English
    Encoded date                             : UTC 2019-10-29 04:04:15
    Tagged date                              : UTC 2019-10-29 04:04:15


    Hidden Content:
    You must reply before you can see the hidden data contained here.
     
    CELOBRAZiL likes this.
  2. Honglong

    Honglong Well-Known Member

    Joined:
    Feb 6, 2020
    Messages:
    1,243
    Likes Received:
    76
    thanks
     
  3. Mayiti

    Mayiti Well-Known Member

    Joined:
    Aug 20, 2020
    Messages:
    1,510
    Likes Received:
    78
    Merci bien
     
  4. CELOBRAZiL

    CELOBRAZiL Well-Known Member Capper V . I . P. Donor

    Joined:
    Oct 2, 2013
    Messages:
    11,961
    Likes Received:
    42,926
    Thanks! :)
     
  5. schoumann

    schoumann Active Member

    Joined:
    Nov 26, 2019
    Messages:
    904
    Likes Received:
    52
  6. nocturn999

    nocturn999 Active Member

    Joined:
    Jul 17, 2014
    Messages:
    330
    Likes Received:
    67
  7. Vinny

    Vinny Well-Known Member

    Joined:
    Dec 26, 2013
    Messages:
    5,104
    Likes Received:
    85
    Thanks
     
  8. bunny

    bunny bunny V . I . P.

    Joined:
    Sep 13, 2020
    Messages:
    1,063
    Likes Received:
    3,915
  9. zm199418

    zm199418 Member

    Joined:
    Apr 1, 2019
    Messages:
    653
    Likes Received:
    20
  10. c7j8d9

    c7j8d9 Active Member

    Joined:
    Aug 27, 2020
    Messages:
    170
    Likes Received:
    29