Doja Cat - Need To Know | (The Voice HDTV-1080i-MP2-WaRKeR)

Discussion in 'The Voice HD' started by WaRKeR, Oct 22, 2021.

  1. WaRKeR

    WaRKeR Active Member

    Joined:
    Feb 18, 2017
    Messages:
    250
    Likes Received:
    139
    ReC.WaRKeR

    [​IMG]
    [​IMG]
    [​IMG]
    [​IMG]
    [​IMG]

    Code:
    Format                      : MPEG-TS
    File size                   : 167 MiB
    Duration                    : 2 min 59 s
    Overall bit rate mode       : Variable
    Overall bit rate            : 7 793 kb/s
    
    Video
    ID                          : 1205 (0x4B5)
    Menu ID                     : 241 (0xF1)
    Format                      : AVC
    Format/Info                 : Advanced Video Codec
    Format profile              : High@L4.1
    Format settings             : CABAC / 4 Ref Frames
    Format settings, CABAC      : Yes
    Format settings, Reference  : 4 frames
    Codec ID                    : 27
    Duration                    : 2 min 59 s
    Bit rate                    : 7 214 kb/s
    Width                       : 1 920 pixels
    Height                      : 1 080 pixels
    Display aspect ratio        : 16:9
    Frame rate                  : 25.000 FPS
    Color space                 : YUV
    Chroma subsampling          : 4:2:0
    Bit depth                   : 8 bits
    Scan type                   : Interlaced
    Scan type, store method     : Separated fields
    Scan order                  : Top Field First
    Bits/(Pixel*Frame)          : 0.139
    Stream size                 : 154 MiB (93%)
    Color range                 : Limited
    Color primaries             : BT.709
    Transfer characteristics    : BT.709
    Matrix coefficients         : BT.709
    
    Audio
    ID                          : 1206 (0x4B6)
    Menu ID                     : 241 (0xF1)
    Format                      : MPEG Audio
    Format version              : Version 1
    Format profile              : Layer 2
    Codec ID                    : 3
    Duration                    : 2 min 59 s
    Bit rate mode               : Constant
    Bit rate                    : 192 kb/s
    Channel(s)                  : 2 channels
    Sampling rate               : 48.0 kHz
    Frame rate                  : 41.667 FPS (1152 SPF)
    Compression mode            : Lossy
    Delay relative to video     : -40 ms
    Stream size                 : 4.11 MiB (2%)
    Language                    : Bulgarian
    
    
    


    Hidden Content:
    You must either reply or click 'Like' to see the hidden information contained here.
     
    Last edited: Oct 22, 2021
    By.YLDz likes this.
  2. Loading...