DJ Pone feat. Jaw - Highways MASTER ProRes 1080p LPCM2.0

Discussion in 'PRORES HD' started by CELOBRAZiL, Nov 29, 2021.

  1. CELOBRAZiL

    CELOBRAZiL Well-Known Member Capper V . I . P. Donor

    Joined:
    Oct 2, 2013
    Messages:
    14,059
    Likes Received:
    51,582
    DJ Pone feat. Jaw - Highways MASTER ProRes 1080p LPCM2.0

    [​IMG]
    [​IMG]



    Format : MPEG-4
    Format profile : QuickTime
    Codec ID : qt 2005.03 (qt )
    File size : 4.20 GiB
    Duration : 3 min 18 s
    Overall bit rate mode : Variable
    Overall bit rate : 181 Mb/s
    Encoded date : UTC 2017-12-20 07:43:35
    Tagged date : UTC 2017-12-20 07:48:08
    Writing library : Apple QuickTime
    TIM : 00:00:00:13
    TSC : 25
    TSZ : 1

    Video
    ID : 1
    Format : ProRes
    Format version : Version 0
    Format profile : 422 HQ
    Codec ID : apch
    Duration : 3 min 18 s
    Bit rate mode : Variable
    Bit rate : 180 Mb/s
    Width : 1 920 pixels
    Height : 1 080 pixels
    Display aspect ratio : 16:9
    Frame rate mode : Constant
    Frame rate : 25.000 FPS
    Color space : YUV
    Chroma subsampling : 4:2:2
    Scan type : Progressive
    Bits/(Pixel*Frame) : 3.464
    Stream size : 4.16 GiB (99%)
    Writing library : Apple
    Language : English
    Encoded date : UTC 2017-12-20 07:43:35
    Tagged date : UTC 2017-12-20 07:43:35
    Color primaries : BT.709
    Transfer characteristics : BT.709
    Matrix coefficients : BT.709

    Audio
    ID : 2
    Format : PCM
    Format settings : Little / Signed
    Codec ID : sowt
    Duration : 3 min 18 s
    Bit rate mode : Constant
    Bit rate : 1 536 kb/s
    Channel(s) : 2 channels
    Channel layout : L R
    Sampling rate : 48.0 kHz
    Bit depth : 16 bits
    Stream size : 36.4 MiB (1%)
    Language : English
    Encoded date : UTC 2017-12-20 07:43:35
    Tagged date : UTC 2017-12-20 07:43:35

    Other
    ID : 3
    Type : Time code
    Format : QuickTime TC
    Duration : 3 min 18 s
    Frame rate : 25.000 FPS
    Time code of first frame : 00:00:00:13
    Time code, striped : Yes
    Language : English
    Encoded date : UTC 2017-12-20 07:43:35
    Tagged date : UTC 2017-12-20 07:43:35


    Link(s):
    Hidden Content:
    You must either reply or click 'Like' to see the hidden information contained here.
     
  2. Loading...


  3. CELOBRAZiL

    CELOBRAZiL Well-Known Member Capper V . I . P. Donor

    Joined:
    Oct 2, 2013
    Messages:
    14,059
    Likes Received:
    51,582
    Added GOOGLE DRIVE link! :p
     
  4. Honglong

    Honglong Well-Known Member

    Joined:
    Feb 6, 2020
    Messages:
    2,100
    Likes Received:
    159
    thanks for sharing and happy everyday!!!
     
    CELOBRAZiL likes this.
  5. anjier

    anjier Member

    Joined:
    Jan 18, 2017
    Messages:
    355
    Likes Received:
    19
    thanks
     
    CELOBRAZiL likes this.
  6. schoumann

    schoumann Well-Known Member

    Joined:
    Nov 26, 2019
    Messages:
    1,074
    Likes Received:
    92
    Merci
     
    CELOBRAZiL likes this.