SERIES Disney.Channel.Games.2008.S03.DSNP.WEB-DL.DDP5.1.H.264-LAZY

Discussion in 'Cinema Center' started by OfficerHighTower, Mar 5, 2021.

  1. OfficerHighTower

    OfficerHighTower New Member

    Joined:
    Aug 15, 2019
    Messages:
    14
    Likes Received:
    10
    [​IMG]
    [​IMG]

    Code:
    General
    Unique ID                                : 90013876887218573572382135724815708877 (0x43B80AC67592479AD7DC49D0073072CD)
    Complete name                            : Disney.Channel.Games.2008.S03E05.Ultramega.Ultimate.Obstac-tacular.Relay.720p.DSNP.WEB-DL.DDP5.1.H.264-LAZY.mkv
    Format                                   : Matroska
    Format version                           : Version 4 / Version 2
    File size                                : 725 MiB
    Duration                                 : 22 min 31 s
    Overall bit rate mode                    : Variable
    Overall bit rate                         : 4 502 kb/s
    Encoded date                             : UTC 2021-02-26 17:53:46
    Writing application                      : mkvmerge v52.0.0 ('Secret For The Mad') 64-bit
    Writing library                          : libebml v1.4.1 + libmatroska v1.6.2
    
    Video
    ID                                       : 1
    Format                                   : AVC
    Format/Info                              : Advanced Video Codec
    Format profile                           : High@L3.1
    Format settings                          : CABAC / 4 Ref Frames
    Format settings, CABAC                   : Yes
    Format settings, ReFrames                : 4 frames
    Codec ID                                 : V_MPEG4/ISO/AVC
    Duration                                 : 22 min 31 s
    Bit rate mode                            : Variable
    Bit rate                                 : 4 244 kb/s
    Maximum bit rate                         : 6 375 kb/s
    Width                                    : 1 280 pixels
    Height                                   : 720 pixels
    Display aspect ratio                     : 16:9
    Frame rate mode                          : Constant
    Frame rate                               : 23.976 (24000/1001) FPS
    Color space                              : YUV
    Chroma subsampling                       : 4:2:0
    Bit depth                                : 8 bits
    Scan type                                : Progressive
    Bits/(Pixel*Frame)                       : 0.192
    Stream size                              : 684 MiB (94%)
    Writing library                          : AVC Coding
    Default                                  : Yes
    Forced                                   : No
    Color range                              : Limited
    Color primaries                          : BT.709
    Transfer characteristics                 : BT.709
    Matrix coefficients                      : BT.709
    
    Audio
    ID                                       : 2
    Format                                   : E-AC-3
    Format/Info                              : Enhanced Audio Coding 3
    Codec ID                                 : A_EAC3
    Duration                                 : 22 min 31 s
    Bit rate mode                            : Constant
    Bit rate                                 : 256 kb/s
    Channel(s)                               : 6 channels
    Channel positions                        : Front: L C R, Side: L R, LFE
    Sampling rate                            : 48.0 kHz
    Frame rate                               : 187.500 FPS (256 SPF)
    Compression mode                         : Lossy
    Stream size                              : 41.2 MiB (6%)
    Language                                 : English
    Service kind                             : Complete Main
    Default                                  : Yes
    Forced                                   : No
    
    Text
    ID                                       : 3
    Format                                   : UTF-8
    Codec ID                                 : S_TEXT/UTF8
    Codec ID/Info                            : UTF-8 Plain Text
    Duration                                 : 22 min 29 s
    Bit rate                                 : 98 b/s
    Count of elements                        : 426
    Stream size                              : 16.3 KiB (0%)
    Language                                 : English
    Default                                  : No
    Forced                                   : No
    These look UPSCALED by Disney rather than real hd !

    MEGA

    Hidden Content:
    You must reply before you can see the hidden data contained here.
     
  2. Loading...


  3. medicine

    medicine PLASTIC HEARTS OUT NOW | mileyl.ink/PlasticHearts

    Joined:
    Nov 20, 2017
    Messages:
    1,226
    Likes Received:
    1,765
    Thank you!
     
  4. WZS

    WZS Member

    Joined:
    Sep 12, 2020
    Messages:
    43
    Likes Received:
    7
    Do you not have the 720p versions? These are all 848x420 and not the 1280x720 as shown in the code you posted.

    Disney.Channel.Games.2008.S03E05.Ultramega.Ultimate.Obstac-tacular.Relay.720p.DSNP.WEB-DL.DDP5.1.H.264-LAZY
     
    Last edited: Mar 5, 2021
    nikshell29 likes this.
  5. Lucas Oliveira neves

    Lucas Oliveira neves Member

    Joined:
    Sep 30, 2018
    Messages:
    151
    Likes Received:
    18
  6. mileyfan

    mileyfan Active Member

    Joined:
    Mar 3, 2014
    Messages:
    384
    Likes Received:
    38
    thanks
     
  7. GraphArtist980

    GraphArtist980 Member

    Joined:
    Dec 29, 2019
    Messages:
    88
    Likes Received:
    9
  8. alongio28

    alongio28 Active Member

    Joined:
    Jul 16, 2020
    Messages:
    862
    Likes Received:
    62
    thanks
     
  9. ezio_auditore52

    ezio_auditore52 Active Member

    Joined:
    Dec 25, 2018
    Messages:
    196
    Likes Received:
    230
  10. yagokay675

    yagokay675 Member

    Joined:
    Jan 16, 2020
    Messages:
    134
    Likes Received:
    2
  11. imwelington

    imwelington Member

    Joined:
    Jan 14, 2019
    Messages:
    81
    Likes Received:
    3
  12. archie1985

    archie1985 Member

    Joined:
    Dec 30, 2017
    Messages:
    202
    Likes Received:
    7
  13. fullhousemichelle

    fullhousemichelle Member

    Joined:
    Jan 16, 2021
    Messages:
    88
    Likes Received:
    1
  14. what_is_a_username

    what_is_a_username Active Member

    Joined:
    Jul 22, 2020
    Messages:
    160
    Likes Received:
    153
  15. xdgame

    xdgame Member

    Joined:
    Feb 3, 2019
    Messages:
    262
    Likes Received:
    10
    thanks
     
  16. yoereyesr21

    yoereyesr21 Well-Known Member

    Joined:
    Mar 12, 2016
    Messages:
    1,259
    Likes Received:
    168
  17. dwjohnson

    dwjohnson New Member

    Joined:
    Oct 2, 2019
    Messages:
    20
    Likes Received:
    1
  18. nikshell29

    nikshell29 Well-Known Member

    Joined:
    Dec 29, 2020
    Messages:
    949
    Likes Received:
    1,302
  19. nikshell29

    nikshell29 Well-Known Member

    Joined:
    Dec 29, 2020
    Messages:
    949
    Likes Received:
    1,302
  20. DCOM

    DCOM Member

    Joined:
    Mar 18, 2020
    Messages:
    89
    Likes Received:
    5
    Thanks
     
    WZS likes this.
  21. mariellisaa

    mariellisaa Well-Known Member

    Joined:
    Jan 17, 2016
    Messages:
    1,076
    Likes Received:
    712