DVD5 Destiny's Child - #1's (Japan Bonus DVD) ISO - 2005

Discussion in 'DVD' started by JrAleixo, Nov 12, 2023.

  1. JrAleixo

    JrAleixo Active Member

    Joined:
    Jun 5, 2021
    Threads:
    17
    Messages:
    123
    Likes Received:
    103
    [​IMG] [​IMG] [​IMG] [​IMG]
    Tracklist:
    1.
    "Live DVD Teaser: Destiny's Child "Live DVD" from Their Last Tour Coming February 2006"
    2. "No, No, No Part 2" (featuring Wyclef Jean)
    3. "Say My Name"
    4. "Survivor"
    5. "Bootylicious"
    6. "Independent Women Part I"
    7. "Lose My Breath"
    8. "Soldier" (featuring T.I. and Lil Wayne)
    9. "Cater 2 U"
    Format : ISO 9660 / DVD Video
    Format profile : Program
    File size : 2.33 GiB
    Duration : 30 min 56 s
    Overall bit rate mode : Variable
    Overall bit rate : 10.8 Mb/s
    Frame rate : 29.970 FPS
    Movie name : DESTINYS_CHILD_NUMBER_ONES
    Encoded date : 2023-09-16 17:33:37.00+61:00

    Video
    ID : 224 (0xE0)
    Format : MPEG Video
    Format version : Version 2
    Format profile : Main@Main
    Format settings : CustomMatrix / BVOP
    Format settings, BVOP : Yes
    Format settings, Matrix : Custom
    Format settings, GOP : Variable
    Format settings, picture struc : Frame
    Duration : 30 min 56 s
    Bit rate mode : Variable
    Bit rate : 8 794 kb/s
    Maximum bit rate : 9 800 kb/s
    Width : 720 pixels
    Height : 480 pixels
    Display aspect ratio : 4:3
    Frame rate : 29.970 (29970/1000) FPS
    Original frame rate : 29.970 (30000/1001) FPS
    Standard : NTSC
    Color space : YUV
    Chroma subsampling : 4:2:0
    Bit depth : 8 bits
    Scan type : Interlaced
    Scan order : Top Field First
    Compression mode : Lossy
    Bits/(Pixel*Frame) : 0.849
    Time code of first frame : 00:59:59:20
    Time code source : Group of pictures header
    Stream size : 1.90 GiB (82%)
    Source : VIDEO_TS\VTS_01_0.IFO

    Audio
    ID : 189 (0xBD)-160 (0xA0)
    Format : PCM
    Format settings : Big / Signed
    Muxing mode : DVD-Video
    Duration : 30 min 56 s
    Bit rate mode : Constant
    Bit rate : 1 536 kb/s
    Channel(s) : 2 channels
    Sampling rate : 48.0 kHz
    Bit depth : 16 bits
    Stream size : 340 MiB (14%)
    Language : English
    Source : VIDEO_TS\VTS_01_0.IFO

    Menu
    Duration : 30 min 56 s
    00:00:00.000 : Chapter 1
    00:03:26.333 : Chapter 2
    00:07:26.000 : Chapter 3
    00:11:35.000 : Chapter 4
    00:15:05.333 : Chapter 5
    00:19:02.000 : Chapter 6
    00:22:40.000 : Chapter 7
    00:26:45.333 : Chapter 8
    00:30:54.667 : Chapter 9
    List (Audio) : 0
    Source : VIDEO_TS\VTS_01_0.IFO
    Hidden Content:
    You must either reply or click 'Like' to see the hidden information contained here.
    Hidden Content:
    You must reply before you can see the hidden data contained here.
     
  2. Loading...


  3. alo5h

    alo5h Well-Known Member

    Joined:
    Oct 11, 2018
    Threads:
    96
    Messages:
    1,205
    Likes Received:
    209
    Thanksss
     
    JrAleixo likes this.
  4. danimanticore

    danimanticore Silent Hill: The Otherworld

    Joined:
    Jun 21, 2020
    Threads:
    83
    Messages:
    933
    Likes Received:
    428
    Oh, Thank you so much.
     
    JrAleixo likes this.
  5. keke666

    keke666 New Member

    Joined:
    Aug 21, 2023
    Threads:
    0
    Messages:
    29
    Likes Received:
    6
    thanks
     
  6. ALP3R

    ALP3R Well-Known Member

    Joined:
    Apr 19, 2014
    Threads:
    48
    Messages:
    746
    Likes Received:
    336
    tnx for the password
     
    JrAleixo likes this.
  7. ilnkvm

    ilnkvm Member

    Joined:
    Dec 9, 2016
    Threads:
    0
    Messages:
    304
    Likes Received:
    18
    thanks
     
    JrAleixo likes this.
  8. P1956

    P1956 Well-Known Member

    Joined:
    Aug 18, 2014
    Threads:
    3
    Messages:
    4,857
    Likes Received:
    750
    thanks
     
    JrAleixo likes this.
  9. HigherLove90

    HigherLove90 Active Member

    Joined:
    Sep 13, 2021
    Threads:
    2
    Messages:
    249
    Likes Received:
    47
    Really appreciate this, thanks so much!
     
    JrAleixo likes this.
  10. Pedro Correia

    Pedro Correia Well-Known Member

    Joined:
    Apr 17, 2014
    Threads:
    50
    Messages:
    2,900
    Likes Received:
    375
    Thanks!
     
    JrAleixo likes this.
  11. Ross

    Ross Well-Known Member

    Joined:
    Oct 19, 2014
    Threads:
    21
    Messages:
    1,726
    Likes Received:
    514
    thanks
     
    JrAleixo likes this.
  12. Fioron

    Fioron Member

    Joined:
    Dec 30, 2015
    Threads:
    0
    Messages:
    27
    Likes Received:
    2
    thanks
     
    JrAleixo likes this.
  13. MigaLouka

    MigaLouka Active Member

    Joined:
    Jan 5, 2018
    Threads:
    30
    Messages:
    811
    Likes Received:
    74
  14. pajpajpaj

    pajpajpaj Well-Known Member

    Joined:
    Feb 11, 2017
    Threads:
    21
    Messages:
    2,151
    Likes Received:
    88
    lets check..
     
  15. Amauri Luiz

    Amauri Luiz Well-Known Member

    Joined:
    Jan 14, 2014
    Threads:
    0
    Messages:
    5,525
    Likes Received:
    407
  16. runsbc

    runsbc Active Member

    Joined:
    Feb 9, 2022
    Threads:
    0
    Messages:
    839
    Likes Received:
    68
    thanks
     
  17. RafelC

    RafelC Active Member

    Joined:
    Apr 15, 2018
    Threads:
    0
    Messages:
    93
    Likes Received:
    5
     
  18. 12wurzel

    12wurzel Well-Known Member

    Joined:
    Oct 16, 2016
    Threads:
    0
    Messages:
    2,109
    Likes Received:
    319
  19. louloubee

    louloubee Active Member

    Joined:
    Apr 17, 2023
    Threads:
    0
    Messages:
    457
    Likes Received:
    59
  20. mihaireal

    mihaireal Active Member

    Joined:
    Jun 20, 2021
    Threads:
    0
    Messages:
    550
    Likes Received:
    85
    thank you very much
     
  21. NEZEK

    NEZEK Active Member

    Joined:
    Jul 25, 2017
    Threads:
    0
    Messages:
    413
    Likes Received:
    56
    thanks!