HDTV Demi Lovato - Skyscraper (Dancing With the Stars S13E06) 1080i HDTV 17 Mbps DD5.1 MPEG2-TrollHD

Discussion in 'HD Live Performances' started by HDMania, Oct 27, 2013.

  1. HDMania

    HDMania Founder Staff Member AdMiN Uploader

    Joined:
    Oct 1, 2013
    Messages:
    1,392
    Likes Received:
    23,150
    [​IMG]

    Code:
          Complete name : Demi Lovato - Skyscraper Performance on Dancing With the Stars (US) S13E06 1080i HDTV 17 Mbps DD5.1 MPEG2-TrollHD.ts
          Format : MPEG-TS
          File size : 512 MiB
          Duration : 4mn 0s
          Overall bit rate mode : Variable
          Overall bit rate : 17.9 Mbps
      Video #49
          ID : 49 (0x31)
          Menu ID : 1 (0x1)
          Format : MPEG Video
          Format version : Version 2
          Format profile : Main@High
          Format settings, BVOP : Yes
          Format settings, Matrix : Custom
          Format settings, GOP : M=3, N=15
          Codec ID : 2
          Duration : 3mn 59s
          Bit rate mode : Variable
          Bit rate : 16.6 Mbps
          Maximum bit rate : 17.1 Mbps
          Width : 1 920 pixels
          Height : 1 080 pixels
          Display aspect ratio : 16:9
          Frame rate : 29.970 fps
          Color space : YUV
          Chroma subsampling : 4:2:0
          Bit depth : 8 bits
          Scan type : Interlaced
          Scan order : Top Field First
          Compression mode : Lossy
          Bits/(Pixel*Frame) : 0.268
          Time code of first frame : 00:00:00;00
          Time code source : Group of pictures header
          Stream size : 475 MiB (93%)
      Audio #52
          ID : 52 (0x34)
          Menu ID : 1 (0x1)
          Format : AC-3
          Format/Info : Audio Coding 3
          Mode extension : CM (complete main)
          Format settings, Endianness : Big
          Codec ID : 129
          Duration : 3mn 59s
          Bit rate mode : Constant
          Bit rate : 384 Kbps
          Channel(s) : 6 channels
          Channel positions : Front: L C R, Side: L R, LFE
          Sampling rate : 48.0 KHz
          Bit depth : 16 bits
          Compression mode : Lossy
          Delay relative to video : 22ms
          Stream size : 11.0 MiB (2%)
          Language : English
      Text #49-CC1
          ID : 49 (0x31)-CC1
          Menu ID : 1 (0x1)
          Format : EIA-608
          Muxing mode : A/53 / DTVCC Transport
          Muxing mode, more info : Muxed in Video #1
          Duration : 3mn 59s
          Bit rate mode : Constant
          Stream size : 0.00 Byte (0%)
      Text #49-1
          ID : 49 (0x31)-1
          Menu ID : 1 (0x1)
          Format : EIA-708
          Muxing mode : A/53 / DTVCC Transport
          Muxing mode, more info : Muxed in Video #1
          Duration : 3mn 59s
          Bit rate mode : Constant
          Stream size : 0.00 Byte (0%)
      Text #49-2
          ID : 49 (0x31)-2
          Menu ID : 1 (0x1)
          Format : EIA-708
          Muxing mode : A/53 / DTVCC Transport
          Muxing mode, more info : Muxed in Video #1
          Duration : 3mn 59s
          Bit rate mode : Constant
          Stream size : 0.00 Byte (0%)


    Download:
    Hidden Content:
    You must either reply or click 'Like' to see the hidden information contained here.


    Password: sharemania.net


    Capper: TrollHD
     
  2. Loading...


  3. marcelodc_

    marcelodc_ Member

    Joined:
    Oct 23, 2013
    Messages:
    192
    Likes Received:
    3
  4. Tiago

    Tiago Well-Known Member

    Joined:
    Dec 7, 2013
    Messages:
    4,161
    Likes Received:
    711
    thank you
     
  5. hiepham

    hiepham VideoHolic

    Joined:
    Oct 30, 2013
    Messages:
    285
    Likes Received:
    1,915
    Thanks for Demi :D
     
  6. Humberto

    Humberto Member

    Joined:
    Dec 9, 2013
    Messages:
    290
    Likes Received:
    18
    thank u
     
  7. rhea

    rhea Well-Known Member

    Joined:
    Jan 6, 2014
    Messages:
    11,834
    Likes Received:
    2,308
    thank you :)
     
  8. multimediafm

    multimediafm Well-Known Member Archiver Donor

    Joined:
    Mar 27, 2014
    Messages:
    20,659
    Likes Received:
    2,256
  9. lapradal

    lapradal Member

    Joined:
    Jun 5, 2014
    Messages:
    517
    Likes Received:
    20
    thank you
     
  10. mvlmoraes

    mvlmoraes Well-Known Member Donor

    Joined:
    Nov 22, 2013
    Messages:
    4,739
    Likes Received:
    829
  11. sideshow_bob

    sideshow_bob Well-Known Member

    Joined:
    Dec 20, 2013
    Messages:
    3,699
    Likes Received:
    758
  12. franklele

    franklele Well-Known Member

    Joined:
    Nov 11, 2013
    Messages:
    2,878
    Likes Received:
    194
    thank you very much
     
  13. edgar

    edgar Well-Known Member V . I . P.

    Joined:
    Oct 12, 2013
    Messages:
    3,033
    Likes Received:
    3,447
    thank you
     
  14. rkn9

    rkn9 Well-Known Member

    Joined:
    Jan 9, 2016
    Messages:
    5,099
    Likes Received:
    203
    oleeeeeeeeeee
     
  15. MG-1992

    MG-1992 Member

    Joined:
    Aug 29, 2016
    Messages:
    372
    Likes Received:
    17
    Thanks!
     
  16. sylvieyunjae

    sylvieyunjae Well-Known Member

    Joined:
    Feb 29, 2016
    Messages:
    1,104
    Likes Received:
    102
  17. GuruPitka

    GuruPitka Active Member

    Joined:
    Apr 3, 2014
    Messages:
    1,145
    Likes Received:
    19
  18. uminomiyako

    uminomiyako Well-Known Member

    Joined:
    May 28, 2016
    Messages:
    5,060
    Likes Received:
    339
  19. Jenkins

    Jenkins Well-Known Member

    Joined:
    May 30, 2019
    Messages:
    24,839
    Likes Received:
    896
    THANKS
     
  20. Ak0202s

    Ak0202s Active Member

    Joined:
    May 18, 2020
    Messages:
    530
    Likes Received:
    34
    thanks