Demi Lovato - Katie [11-19-13] (1080i) -Brian

Discussion in 'Interviews / TV shows / Others' started by Dfrazzer, Oct 24, 2015.

  1. Dfrazzer

    Dfrazzer Super Moderator Staff Member Super Moderator Capper V . I . P. Donor

    Joined:
    Nov 4, 2013
    Messages:
    6,359
    Likes Received:
    19,087
    [​IMG] [​IMG] [​IMG] [​IMG] [​IMG] [​IMG]

    Code:
    General
    ID : 1 (0x1)
    Complete name : C:\Users\Dfrazzer\Desktop\Recent Uploads\Demi Lovato - Katie [11-19-13] (1080i) -Brian\Demi Lovato - Katie [11-19-13] (1080i) -Brian.ts
    Format : MPEG-TS
    File size : 999 MiB
    Duration : 9mn 28s
    Overall bit rate mode : Variable
    Overall bit rate : 14.7 Mbps
    Law rating : TV-14
    
    Video
    ID : 632 (0x278)
    Menu ID : 1 (0x1)
    Format : MPEG Video
    Format version : Version 2
    Format profile : Main@High
    Format settings, BVOP : Yes
    Format settings, Matrix : Custom
    Format settings, GOP : Variable
    Codec ID : 2
    Duration : 9mn 28s
    Bit rate mode : Variable
    Bit rate : 13.6 Mbps
    Maximum bit rate : 38.8 Mbps
    Width : 1 920 pixels
    Height : 1 080 pixels
    Display aspect ratio : 16:9
    Active Format Description : Full frame 16:9 image
    Frame rate : 29.970 fps
    Color space : YUV
    Chroma subsampling : 4:2:0
    Bit depth : 8 bits
    Scan type : Interlaced
    Scan order : Top Field First
    Compression mode : Lossy
    Bits/(Pixel*Frame) : 0.219
    Time code of first frame : 00:00:00;00
    Time code source : Group of pictures header
    Stream size : 923 MiB (92%)
    
    Audio
    ID : 630 (0x276)
    Menu ID : 1 (0x1)
    Format : AC-3
    Format/Info : Audio Coding 3
    Mode extension : CM (complete main)
    Format settings, Endianness : Big
    Codec ID : 129
    Duration : 9mn 28s
    Bit rate mode : Constant
    Bit rate : 384 Kbps
    Channel(s) : 6 channels
    Channel positions : Front: L C R, Side: L R, LFE
    Sampling rate : 48.0 KHz
    Bit depth : 16 bits
    Compression mode : Lossy
    Delay relative to video : 23ms
    Stream size : 26.0 MiB (3%)
    Language : English
    
    Text #1
    ID : 632 (0x278)-CC1
    Menu ID : 1 (0x1)
    Format : EIA-608
    Muxing mode : A/53 / DTVCC Transport
    Muxing mode, more info : Muxed in Video #1
    Duration : 9mn 28s
    Bit rate mode : Constant
    Stream size : 0.00 Byte (0%)
    
    Text #2
    ID : 632 (0x278)-1
    Menu ID : 1 (0x1)
    Format : EIA-708
    Muxing mode : A/53 / DTVCC Transport
    Muxing mode, more info : Muxed in Video #1
    Duration : 9mn 28s
    Bit rate mode : Constant
    Stream size : 0.00 Byte (0%)
    
    Hidden Content:
    You must reply before you can see the hidden data contained here.
    Original capper: Brian
     
    Last edited: Nov 12, 2015
  2. Loading...


  3. alex

    alex Well-Known Member

    Joined:
    Nov 21, 2013
    Messages:
    4,637
    Likes Received:
    478
    Thank you :)
     
  4. ytyh

    ytyh Member

    Joined:
    Mar 30, 2014
    Messages:
    432
    Likes Received:
    4
    thank you
     
  5. Sorps

    Sorps New Member

    Joined:
    Feb 3, 2014
    Messages:
    17
    Likes Received:
    0
    Thanks!!
     
  6. pinky

    pinky Well-Known Member

    Joined:
    Jun 27, 2015
    Messages:
    2,719
    Likes Received:
    187
    thank you :)
     
  7. Milad.M

    Milad.M Active Member

    Joined:
    Nov 12, 2015
    Messages:
    306
    Likes Received:
    150
    Thanks
     
  8. Jenkins

    Jenkins Well-Known Member

    Joined:
    May 30, 2019
    Messages:
    24,859
    Likes Received:
    929
    THANKS
     
  9. czosnek

    czosnek Active Member

    Joined:
    Nov 6, 2015
    Messages:
    686
    Likes Received:
    70
    Dead links :nothing:
     
    Last edited: Sep 28, 2019
  10. souarrozrblx

    souarrozrblx gablovato

    Joined:
    Apr 20, 2021
    Messages:
    154
    Likes Received:
    44