Demi Lovato - E! Special Give Your Heart a Break 1080i TrollHD

Discussion in 'Interviews / TV shows / Others' started by Dfrazzer, Oct 24, 2015.

  1. Dfrazzer

    Dfrazzer Super Moderator Staff Member Super Moderator Capper V . I . P. Donor

    Joined:
    Nov 4, 2013
    Messages:
    6,359
    Likes Received:
    19,087
    [​IMG] [​IMG] [​IMG] [​IMG]

    Code:
    General
    ID : 1 (0x1)
    Complete name : G:\Demi Lovato\Demi Lovato - E! Special Give Your Heart a Break 1080i\E! Special - Demi Lovato - Give Your Heart a Break 1080i HDTV DD2.0 MPEG2-TrollHD.ts
    Format : MPEG-TS
    File size : 2.75 GiB
    Duration : 22mn 10s
    Overall bit rate mode : Variable
    Overall bit rate : 17.8 Mbps
    Law rating : TV-14
    
    Video
    ID : 537 (0x219)
    Menu ID : 1 (0x1)
    Format : MPEG Video
    Format version : Version 2
    Format profile : Main@High
    Format settings, BVOP : Yes
    Format settings, Matrix : Custom
    Format settings, GOP : M=3, N=15
    Codec ID : 2
    Duration : 22mn 9s
    Bit rate mode : Variable
    Bit rate : 16.5 Mbps
    Maximum bit rate : 18.0 Mbps
    Width : 1 920 pixels
    Height : 1 080 pixels
    Display aspect ratio : 16:9
    Frame rate : 29.970 fps
    Color space : YUV
    Chroma subsampling : 4:2:0
    Bit depth : 8 bits
    Scan type : Interlaced
    Scan order : Top Field First
    Compression mode : Lossy
    Bits/(Pixel*Frame) : 0.266
    Time code of first frame : 00:00:00;00
    Time code source : Group of pictures header
    Stream size : 2.56 GiB (93%)
    
    Audio
    ID : 535 (0x217)
    Menu ID : 1 (0x1)
    Format : AC-3
    Format/Info : Audio Coding 3
    Mode extension : CM (complete main)
    Format settings, Endianness : Big
    Codec ID : 129
    Duration : 22mn 10s
    Bit rate mode : Constant
    Bit rate : 384 Kbps
    Channel(s) : 2 channels
    Channel positions : Front: L R
    Sampling rate : 48.0 KHz
    Bit depth : 16 bits
    Compression mode : Lossy
    Stream size : 60.9 MiB (2%)
    Language : English
    
    Text #1
    ID : 537 (0x219)-CC1
    Menu ID : 1 (0x1)
    Format : EIA-608
    Muxing mode : A/53 / DTVCC Transport
    Muxing mode, more info : Muxed in Video #1
    Duration : 22mn 9s
    Bit rate mode : Constant
    Stream size : 0.00 Byte (0%)
    
    Text #2
    ID : 537 (0x219)-T1
    Menu ID : 1 (0x1)
    Format : EIA-608
    Muxing mode : A/53 / DTVCC Transport
    Muxing mode, more info : Muxed in Video #1
    Duration : 22mn 9s
    Bit rate mode : Constant
    Stream size : 0.00 Byte (0%)
    
    Text #3
    ID : 537 (0x219)-1
    Menu ID : 1 (0x1)
    Format : EIA-708
    Muxing mode : A/53 / DTVCC Transport
    Muxing mode, more info : Muxed in Video #1
    Duration : 22mn 9s
    Bit rate mode : Constant
    Stream size : 0.00 Byte (0%)
    
    Hidden Content:
    You must reply before you can see the hidden data contained here.
    Original capper: TrollHD
     
    Last edited: Apr 26, 2020
    souarrozrblx, EDEKA3, Milad.M and 4 others like this.
  2. Loading...


  3. alex

    alex Well-Known Member

    Joined:
    Nov 21, 2013
    Messages:
    4,637
    Likes Received:
    478
    Thank you :D:love:
     
  4. Hyrus

    Hyrus Aria/Sele-nator ~ Camilizer ~ Black Star ~ BLINK Donor

    Joined:
    Feb 9, 2015
    Messages:
    1,582
    Likes Received:
    1,904
    Thanks for Demi. She's very cute :D
     
  5. nino.navy

    nino.navy Well-Known Member

    Joined:
    May 30, 2014
    Messages:
    5,212
    Likes Received:
    523
    thanks for demi :D
     
  6. Paula

    Paula Active Member

    Joined:
    Oct 30, 2013
    Messages:
    442
    Likes Received:
    50
    I wantet better quality, thx so os much
     
  7. aturner18

    aturner18 Well-Known Member

    Joined:
    Oct 2, 2014
    Messages:
    2,109
    Likes Received:
    241
    thanks I made DVD with alot of her older performance and aspect was messed up on this special.
     
  8. ytyh

    ytyh Member

    Joined:
    Mar 30, 2014
    Messages:
    432
    Likes Received:
    4
    thank you
     
  9. czosnek

    czosnek Active Member

    Joined:
    Nov 6, 2015
    Messages:
    686
    Likes Received:
    70
    thanks!
     
  10. Milad.M

    Milad.M Active Member

    Joined:
    Nov 12, 2015
    Messages:
    306
    Likes Received:
    150
    Thanks
     
  11. salinda

    salinda Well-Known Member

    Joined:
    Nov 14, 2018
    Messages:
    2,067
    Likes Received:
    83
    thank you
     
  12. rkn9

    rkn9 Well-Known Member

    Joined:
    Jan 9, 2016
    Messages:
    5,100
    Likes Received:
    209
    oleeeeeeeeeeeeeeee
     
  13. Jenkins

    Jenkins Well-Known Member

    Joined:
    May 30, 2019
    Messages:
    24,859
    Likes Received:
    929
    THANKS
     
  14. Dfrazzer

    Dfrazzer Super Moderator Staff Member Super Moderator Capper V . I . P. Donor

    Joined:
    Nov 4, 2013
    Messages:
    6,359
    Likes Received:
    19,087
    Reuploaded
     
  15. kranks

    kranks Active Member

    Joined:
    Apr 22, 2020
    Messages:
    333
    Likes Received:
    43
    thank you so much
     
  16. souarrozrblx

    souarrozrblx gablovato

    Joined:
    Apr 20, 2021
    Messages:
    154
    Likes Received:
    44