WEB-RiP Demi Lovato - Dancing with the Devil (The Tonight Show Starring Jimmy Fallon Apr 10,2021) 1080p-glhf

Discussion in 'HD Live Performances' started by Magenta, Apr 10, 2021.

  1. Magenta

    Magenta Well-Known Member V . I . P. Uploader

    Joined:
    Dec 15, 2015
    Messages:
    1,786
    Likes Received:
    11,140
    [​IMG]
    [​IMG]
    [​IMG]
    [​IMG] [​IMG]
    General

    Format : Matroska
    File size : 251 MiB
    Duration : 4 min 24 s
    Overall bit rate : 7 955 kb/s

    Video
    ID : 1
    Format : AVC
    Format/Info : Advanced Video Codec
    Format profile : High@L4
    Format settings, CABAC : Yes
    Format settings, RefFrames : 4 frames
    Codec ID : V_MPEG4/ISO/AVC
    Duration : 4 min 24 s
    Bit rate : 7 761 kb/s
    Width : 1 920 pixels
    Height : 1 080 pixels
    Display aspect ratio : 16:9
    Frame rate mode : Constant
    Frame rate : 29.970 (30000/1001) FPS
    Color space : YUV
    Chroma subsampling : 4:2:0
    Bit depth : 8 bits
    Scan type : Progressive
    Bits/(Pixel*Frame) : 0.125
    Stream size : 244 MiB (98%)
    Default : Yes
    Forced : No
    Color range : Limited
    Color primaries : BT.709
    Transfer characteristics : BT.709
    Matrix coefficients : BT.709

    Audio
    ID : 2
    Format : E-AC-3
    Format/Info : Enhanced Audio Coding 3
    Format settings, Endianness : Big
    Codec ID : A_EAC3
    Duration : 4 min 24 s
    Bit rate mode : Constant
    Bit rate : 192 kb/s
    Channel(s) : 6 channels
    Channel positions : Front: L C R, Side: L R, LFE
    Sampling rate : 48.0 kHz
    Frame rate : 187.500 FPS (256 SPF)
    Compression mode : Lossy
    Delay relative to video : 14 ms
    Stream size : 6.05 MiB (2%)
    Language : English
    Service kind : Complete Main
    Default : Yes
    Forced : No

    Text
    ID : 3
    Format : UTF-8
    Codec ID : S_TEXT/UTF8
    Codec ID/Info : UTF-8 Plain Text
    Duration : 4 min 7 s
    Bit rate : 58 b/s
    Count of elements : 31
    Stream size : 1.77 KiB (0%)
    Title : English
    Language : English
    Default : No
    Forced : No
    Capper: glhf

    Link: G-Drive
    Hidden Content:
    You must either reply or click 'Like' to see the hidden information contained here.
     
    Last edited: Apr 10, 2021
  2. Loading...


  3. bellastory

    bellastory Active Member

    Joined:
    Sep 16, 2020
    Messages:
    340
    Likes Received:
    201
  4. theclimb

    theclimb Well-Known Member

    Joined:
    Dec 16, 2014
    Messages:
    2,103
    Likes Received:
    1,028
    Thank you for Demi
     
  5. onceandagain

    onceandagain Active Member

    Joined:
    May 19, 2020
    Messages:
    348
    Likes Received:
    121
  6. kedy

    kedy Active Member

    Joined:
    Nov 24, 2020
    Messages:
    357
    Likes Received:
    145
    many thanks
     
  7. videohigh

    videohigh Active Member

    Joined:
    May 19, 2020
    Messages:
    533
    Likes Received:
    192
    Thank you!
     
  8. KatyHDfan

    KatyHDfan Active Member

    Joined:
    Jun 25, 2019
    Messages:
    341
    Likes Received:
    137
    Thanks a lot
     
  9. mvmaster

    mvmaster Active Member

    Joined:
    Oct 19, 2020
    Messages:
    311
    Likes Received:
    103
    thanks
     
  10. danesim

    danesim Active Member

    Joined:
    May 20, 2020
    Messages:
    322
    Likes Received:
    105
    thanks!!
     
  11. storeofdreams

    storeofdreams Active Member

    Joined:
    Dec 20, 2020
    Messages:
    306
    Likes Received:
    95
  12. timbe

    timbe Active Member

    Joined:
    Nov 22, 2020
    Messages:
    362
    Likes Received:
    122
    thankss
     
  13. thony

    thony Active Member

    Joined:
    Mar 27, 2014
    Messages:
    385
    Likes Received:
    28
    merci
     
  14. nino.navy

    nino.navy Well-Known Member

    Joined:
    May 30, 2014
    Messages:
    5,003
    Likes Received:
    473
    thanks a lot
     
  15. Shakira

    Shakira Active Member

    Joined:
    Jan 4, 2019
    Messages:
    321
    Likes Received:
    126
    gracias
     
  16. these days

    these days Active Member

    Joined:
    Nov 23, 2020
    Messages:
    272
    Likes Received:
    93
    Thank you
     
  17. kimsoohyun

    kimsoohyun Active Member

    Joined:
    May 19, 2020
    Messages:
    283
    Likes Received:
    124
    Thank U.
     
  18. antoniojoseguizilini

    antoniojoseguizilini Well-Known Member

    Joined:
    Dec 2, 2016
    Messages:
    3,001
    Likes Received:
    270
  19. azamusic

    azamusic Well-Known Member Capper

    Joined:
    Dec 6, 2013
    Messages:
    1,551
    Likes Received:
    662
    thank u
     
  20. exterminador

    exterminador Well-Known Member

    Joined:
    Jul 3, 2016
    Messages:
    3,920
    Likes Received:
    452
  21. apl3

    apl3 Well-Known Member

    Joined:
    Jun 11, 2017
    Messages:
    2,637
    Likes Received:
    241
    thanks