CRAVITY - Break All The Rules (Master ProRes 1080p)

Discussion in 'PRORES HD' started by kht, Feb 1, 2021.

  1. kht

    kht Well-Known Member

    Joined:
    Sep 30, 2020
    Messages:
    235
    Likes Received:
    441
    Size: 4.42GB
    Resolution: 1920x1080@24p
    Video codec: Apple ProRes 422 HQ, 171Mb/s
    Audio codec: PCM, 16-bit/48kHz

    [​IMG]

    Code:
    Format                      : MPEG-4
    Format profile              : QuickTime
    Codec ID                    : qt   2005.03 (qt  )
    File size                   : 4.42 GiB
    Duration                    : 3 min 38 s
    Overall bit rate mode       : Variable
    Overall bit rate            : 174 Mb/s
    Encoded date                : UTC 2020-04-14 14:30:05
    Tagged date                 : UTC 2020-04-12 14:36:37
    Writing library             : Apple QuickTime
    
    Video
    ID                          : 1
    Format                      : ProRes
    Format version              : Version 0
    Format profile              : 422 HQ
    Codec ID                    : apch
    Duration                    : 3 min 38 s
    Bit rate mode               : Variable
    Bit rate                    : 171 Mb/s
    Width                       : 1 920 pixels
    Height                      : 1 080 pixels
    Display aspect ratio        : 16:9
    Frame rate mode             : Constant
    Frame rate                  : 23.976 (24000/1001) FPS
    Color space                 : YUV
    Chroma subsampling          : 4:2:2
    Scan type                   : Progressive
    Bits/(Pixel*Frame)          : 3.436
    Stream size                 : 4.35 GiB (98%)
    Writing library             : Apple
    Language                    : English
    Encoded date                : UTC 2020-04-14 14:30:05
    Tagged date                 : UTC 2020-04-14 14:30:05
    Color primaries             : BT.709
    Transfer characteristics    : BT.709
    Matrix coefficients         : BT.709
    Menus                       : 0
    
    Audio
    ID                          : 2
    Format                      : PCM
    Format settings             : Little / Signed
    Codec ID                    : sowt
    Duration                    : 3 min 38 s
    Bit rate mode               : Constant
    Bit rate                    : 1 536 kb/s
    Channel(s)                  : 2 channels
    Channel layout              : L R
    Sampling rate               : 48.0 kHz
    Bit depth                   : 16 bits
    Stream size                 : 40.1 MiB (1%)
    Language                    : English
    Encoded date                : UTC 2020-04-14 14:30:05
    Tagged date                 : UTC 2020-04-14 14:30:05
    Menus                       : 0
    
    Other
    ID                          : 3
    Type                        : Time code
    Format                      : QuickTime TC
    Duration                    : 3 min 38 s
    Frame rate                  : 23.976 (24000/1001) FPS
    Time code of first frame    : 00:00:00:00
    Time code, striped          : Yes
    Language                    : English
    Encoded date                : UTC 2020-04-14 14:30:05
    Tagged date                 : UTC 2020-04-14 14:30:05
    
    

    Hidden Content:
    You must either reply or click 'Like' to see the hidden information contained here.
     
    Last edited: May 10, 2021 at 12:26 AM
    nickx000x and Moon Scarlet like this.
  2. Loading...


  3. Honglong

    Honglong Member

    Joined:
    Feb 6, 2020
    Messages:
    930
    Likes Received:
    23
    thanks
     
  4. wisen

    wisen Member

    Joined:
    Jun 3, 2020
    Messages:
    245
    Likes Received:
    2
    thanks
     
  5. magicmannn

    magicmannn Member

    Joined:
    Dec 27, 2020
    Messages:
    166
    Likes Received:
    3
  6. abcdefg

    abcdefg Active Member

    Joined:
    Feb 6, 2018
    Messages:
    985
    Likes Received:
    100
    thanks
     
  7. nickx000x

    nickx000x Member

    Joined:
    Nov 3, 2018
    Messages:
    154
    Likes Received:
    17
    thanks!
     
  8. bunny

    bunny bunny

    Joined:
    Sep 13, 2020
    Messages:
    527
    Likes Received:
    1,536
    qweetry
     
  9. wonszus

    wonszus Active Member

    Joined:
    Apr 2, 2019
    Messages:
    238
    Likes Received:
    50
    qwertyuiop
     
  10. koruseonly

    koruseonly Member

    Joined:
    Aug 23, 2016
    Messages:
    268
    Likes Received:
    5
    Thanks!