DVD Craig David - What's Your Flava (Promo Only) [VOB]

Discussion in 'SD' started by claudio1301, Apr 22, 2021.

  1. claudio1301

    claudio1301 Well-Known Member V . I . P.

    Joined:
    Oct 2, 2018
    Messages:
    1,784
    Likes Received:
    4,358
    [​IMG]
    Code:
    General
    Complete name                  : Craig David - What's Your Flava (Promo Only).vob
    Format                         : MPEG-PS
    File size                      : 199 MiB
    Duration                       : 4 min 6 s
    Overall bit rate mode          : Variable
    Overall bit rate               : 6 783 kb/s
    
    Video
    ID                             : 224 (0xE0)
    Format                         : MPEG Video
    Format version                 : Version 2
    Format profile                 : Main@Main
    Format settings                : BVOP
    Format settings, BVOP          : Yes
    Format settings, Matrix        : Default
    Format settings, GOP           : M=3, N=13
    Format settings, picture struc : Field
    Duration                       : 4 min 6 s
    Bit rate mode                  : Variable
    Bit rate                       : 5 112 kb/s
    Maximum bit rate               : 7 800 kb/s
    Width                          : 720 pixels
    Height                         : 480 pixels
    Display aspect ratio           : 4:3
    Frame rate                     : 29.970 (30000/1001) FPS
    Standard                       : NTSC
    Color space                    : YUV
    Chroma subsampling             : 4:2:0
    Bit depth                      : 8 bits
    Scan type                      : Interlaced
    Scan order                     : Top Field First
    Compression mode               : Lossy
    Bits/(Pixel*Frame)             : 0.494
    Time code of first frame       : 00:00:00:00
    Time code source               : Group of pictures header
    GOP, Open/Closed               : Closed
    Stream size                    : 150 MiB (75%)
    Color primaries                : BT.601 NTSC
    Transfer characteristics       : BT.601
    Matrix coefficients            : BT.601
    
    Audio
    ID                             : 189 (0xBD)-160 (0xA0)
    Format                         : PCM
    Format settings                : Big / Signed
    Muxing mode                    : DVD-Video
    Duration                       : 4 min 6 s
    Bit rate mode                  : Constant
    Bit rate                       : 1 536 kb/s
    Channel(s)                     : 2 channels
    Sampling rate                  : 48.0 kHz
    Bit depth                      : 16 bits
    Stream size                    : 45.1 MiB (23%)
    
    Menu
    Host: Mediafire
    Hidden Content:
    You must reply before you can see the hidden data contained here.
     
    CELOBRAZiL likes this.
  2. Loading...


  3. CELOBRAZiL

    CELOBRAZiL Well-Known Member Capper V . I . P. Donor

    Joined:
    Oct 2, 2013
    Messages:
    10,643
    Likes Received:
    38,393
    Thanks! :)