HDTV Coldplay - Higher Power - The Tonight Show Starring Jimmy Fallon [Jun-16-2021] NBC 1080i HDTV DD5.1 MPEG2 ilya2129-HDMania [CC]

Discussion in 'HD Live Performances' started by CELOBRAZiL, Jul 21, 2021.

  1. CELOBRAZiL

    CELOBRAZiL Well-Known Member Capper V . I . P. Donor

    Joined:
    Oct 2, 2013
    Messages:
    11,961
    Likes Received:
    42,926
    Coldplay - Higher Power - The Tonight Show Starring Jimmy Fallon [Jun-16-2021] NBC 1080i HDTV DD5.1 MPEG2 ilya2129-HDMania [CC]

    [​IMG]



    Format : MPEG-TS
    File size : 457 MiB
    Duration : 4 min 21 s
    Overall bit rate mode : Variable
    Overall bit rate : 14.7 Mb/s
    Movie name : Tonight Show Jimmy Fallon
    Law rating : TV-14 (L)

    Video
    ID : 5001 (0x1389)
    Menu ID : 1028 (0x404)
    Format : MPEG Video
    Format version : Version 2
    Format profile : Main@High
    Format settings : CustomMatrix / BVOP
    Format settings, BVOP : Yes
    Format settings, Matrix : Custom
    Format settings, GOP : Variable
    Codec ID : 2
    Duration : 4 min 21 s
    Bit rate mode : Variable
    Bit rate : 13.4 Mb/s
    Maximum bit rate : 24.0 Mb/s
    Width : 1 920 pixels
    Height : 1 080 pixels
    Display aspect ratio : 16:9
    Active Format Description : Full frame 16:9 image
    Frame rate : 29.970 (30000/1001) FPS
    Color space : YUV
    Chroma subsampling : 4:2:0
    Bit depth : 8 bits
    Compression mode : Lossy
    Bits/(Pixel*Frame) : 0.215
    Time code of first frame : 00:00:00;00
    Time code source : Group of pictures header
    GOP, Open/Closed : Open
    GOP, Open/Closed of first frame : Closed
    Stream size : 416 MiB (91%)

    Audio #1
    ID : 5002 (0x138A)
    Menu ID : 1028 (0x404)
    Format : AC-3
    Format/Info : Audio Coding 3
    Commercial name : Dolby Digital
    Codec ID : 129
    Duration : 4 min 21 s
    Bit rate mode : Constant
    Bit rate : 384 kb/s
    Channel(s) : 6 channels
    Channel layout : L R C LFE Ls Rs
    Sampling rate : 48.0 kHz
    Frame rate : 31.250 FPS (1536 SPF)
    Compression mode : Lossy
    Delay relative to video : 15 ms
    Stream size : 12.0 MiB (3%)
    Language : English
    Service kind : Complete Main

    Audio #2
    ID : 5003 (0x138B)
    Menu ID : 1028 (0x404)
    Format : AC-3
    Format/Info : Audio Coding 3
    Commercial name : Dolby Digital
    Codec ID : 129
    Duration : 4 min 21 s
    Bit rate mode : Constant
    Bit rate : 192 kb/s
    Channel(s) : 2 channels
    Channel layout : L R
    Sampling rate : 48.0 kHz
    Frame rate : 31.250 FPS (1536 SPF)
    Compression mode : Lossy
    Delay relative to video : 9 ms
    Stream size : 5.98 MiB (1%)
    Language : Spanish
    Service kind : Complete Main

    Text #1
    ID : 5001 (0x1389)-CC1
    Menu ID : 1028 (0x404)
    Format : EIA-608
    Muxing mode : A/53 / DTVCC Transport
    Muxing mode, more info : Muxed in Video #1
    Duration : 4 min 21 s
    Bit rate mode : Constant
    Stream size : 0.00 Byte (0%)
    CaptionServiceName : CC1

    Text #2
    ID : 5001 (0x1389)-CC3
    Menu ID : 1028 (0x404)
    Format : EIA-608
    Muxing mode : A/53 / DTVCC Transport
    Muxing mode, more info : Muxed in Video #1
    Duration : 4 min 21 s
    Bit rate mode : Constant
    Stream size : 0.00 Byte (0%)
    CaptionServiceName : CC3

    Text #3
    ID : 5001 (0x1389)-1
    Menu ID : 1028 (0x404)
    Format : EIA-708
    Muxing mode : A/53 / DTVCC Transport
    Muxing mode, more info : Muxed in Video #1
    Duration : 4 min 21 s
    Bit rate mode : Constant
    Stream size : 0.00 Byte (0%)

    Text #4
    ID : 5001 (0x1389)-2
    Menu ID : 1028 (0x404)
    Format : EIA-708
    Muxing mode : A/53 / DTVCC Transport
    Muxing mode, more info : Muxed in Video #1
    Duration : 4 min 21 s
    Bit rate mode : Constant
    Stream size : 0.00 Byte (0%)

    Text #5
    ID : 5001 (0x1389)-3
    Menu ID : 1028 (0x404)
    Format : EIA-708
    Muxing mode : A/53 / DTVCC Transport
    Muxing mode, more info : Muxed in Video #1
    Duration : 4 min 21 s
    Bit rate mode : Constant
    Stream size : 0.00 Byte (0%)


    Link(s):
    Hidden Content:
    You must either reply or click 'Like' to see the hidden information contained here.
     
  2. Loading...


  3. CELOBRAZiL

    CELOBRAZiL Well-Known Member Capper V . I . P. Donor

    Joined:
    Oct 2, 2013
    Messages:
    11,961
    Likes Received:
    42,926
    :love::love::love:

    Added GOOGLE DRIVE link + MIRROR link! :p
     
  4. dajalma

    dajalma Active Member

    Joined:
    May 27, 2016
    Messages:
    947
    Likes Received:
    95
    gracias
     
    CELOBRAZiL likes this.
  5. eykhilde

    eykhilde Active Member

    Joined:
    Oct 18, 2015
    Messages:
    717
    Likes Received:
    102
    Thanks again for Coldplay
     
    CELOBRAZiL likes this.
  6. 601960928

    601960928 Active Member

    Joined:
    Jul 3, 2016
    Messages:
    664
    Likes Received:
    112
    Thanks
     
    CELOBRAZiL likes this.
  7. multimediafm

    multimediafm Well-Known Member Archiver Donor

    Joined:
    Mar 27, 2014
    Messages:
    20,680
    Likes Received:
    2,267
    Thanks:)
     
    CELOBRAZiL likes this.
  8. matucho

    matucho Member

    Joined:
    Jun 27, 2016
    Messages:
    103
    Likes Received:
    10
    thanks!
     
    CELOBRAZiL likes this.
  9. Fresh strawberries

    Fresh strawberries Member

    Joined:
    Jun 14, 2016
    Messages:
    283
    Likes Received:
    16
    thanks
     
    CELOBRAZiL likes this.
  10. crispicazzo

    crispicazzo Active Member

    Joined:
    Dec 19, 2015
    Messages:
    723
    Likes Received:
    61
    THANKS!
     
    CELOBRAZiL likes this.
  11. gybr77

    gybr77 Member

    Joined:
    Dec 6, 2015
    Messages:
    97
    Likes Received:
    19
    thank you !
     
    CELOBRAZiL likes this.
  12. rhea

    rhea Well-Known Member

    Joined:
    Jan 6, 2014
    Messages:
    11,856
    Likes Received:
    2,328
    thank you
     
    CELOBRAZiL likes this.
  13. Bruno

    Bruno Well-Known Member

    Joined:
    Nov 3, 2013
    Messages:
    3,404
    Likes Received:
    349
    many thx
     
    CELOBRAZiL likes this.