HDTV CMT Crossroads - Steven Tyler & Carrie Underwood (2012) CMT 1080i HDTV DD5.1 MPEG2-TrollHD [CC]

Discussion in 'HD Live Performances' started by CELOBRAZiL, Jul 22, 2021.

  1. CELOBRAZiL

    CELOBRAZiL Well-Known Member Capper V . I . P. Donor

    Joined:
    Oct 2, 2013
    Messages:
    11,961
    Likes Received:
    42,895
    CMT Crossroads - Steven Tyler & Carrie Underwood CMT 1080i HDTV DD5.1 MPEG2-TrollHD [CC]

    [​IMG]



    Format : MPEG-TS
    File size : 4.64 GiB
    Duration : 39 min 31 s
    Overall bit rate mode : Variable
    Overall bit rate : 16.8 Mb/s
    Law rating : TV-14 (DL)

    Video
    ID : 542 (0x21E)
    Menu ID : 1 (0x1)
    Format : MPEG Video
    Format version : Version 2
    Format profile : Main@High
    Format settings : CustomMatrix / BVOP
    Format settings, BVOP : Yes
    Format settings, Matrix : Custom
    Format settings, GOP : M=3, N=15
    Format settings, picture structure : Frame
    Codec ID : 2
    Duration : 39 min 31 s
    Bit rate mode : Variable
    Bit rate : 15.6 Mb/s
    Maximum bit rate : 18.0 Mb/s
    Width : 1 920 pixels
    Height : 1 080 pixels
    Display aspect ratio : 16:9
    Frame rate : 29.970 (30000/1001) FPS
    Color space : YUV
    Chroma subsampling : 4:2:0
    Bit depth : 8 bits
    Scan type : Interlaced
    Scan order : Top Field First
    Compression mode : Lossy
    Bits/(Pixel*Frame) : 0.251
    Time code of first frame : 00:00:00;00
    Time code source : Group of pictures header
    GOP, Open/Closed : Open
    GOP, Open/Closed of first frame : Closed
    Stream size : 4.31 GiB (93%)

    Audio
    ID : 541 (0x21D)
    Menu ID : 1 (0x1)
    Format : AC-3
    Format/Info : Audio Coding 3
    Commercial name : Dolby Digital
    Codec ID : 129
    Duration : 39 min 31 s
    Bit rate mode : Constant
    Bit rate : 384 kb/s
    Channel(s) : 6 channels
    Channel layout : L R C LFE Ls Rs
    Sampling rate : 48.0 kHz
    Frame rate : 31.250 FPS (1536 SPF)
    Compression mode : Lossy
    Stream size : 109 MiB (2%)
    Language : English
    Service kind : Complete Main

    Text #1
    ID : 542 (0x21E)-CC1
    Menu ID : 1 (0x1)
    Format : EIA-608
    Muxing mode : A/53 / DTVCC Transport
    Muxing mode, more info : Muxed in Video #1
    Duration : 39 min 31 s
    Bit rate mode : Constant
    Stream size : 0.00 Byte (0%)
    CaptionServiceName : CC1

    Text #2
    ID : 542 (0x21E)-1
    Menu ID : 1 (0x1)
    Format : EIA-708
    Muxing mode : A/53 / DTVCC Transport
    Muxing mode, more info : Muxed in Video #1
    Duration : 39 min 31 s
    Bit rate mode : Constant
    Stream size : 0.00 Byte (0%)


    :: SETLiST ::

    1. Sweet Emotion
    2. Love in the Elevator
    3. Before He Cheats
    4. Cryin'
    5. Just a Dream
    6. Dream on
    7. Undo It
    8. Walk This Way
    9. Born to be Wild


    Link(s):
    Hidden Content:
    You must either reply or click 'Like' to see the hidden information contained here.
     
  2. Loading...


  3. CELOBRAZiL

    CELOBRAZiL Well-Known Member Capper V . I . P. Donor

    Joined:
    Oct 2, 2013
    Messages:
    11,961
    Likes Received:
    42,895
    :love::love::love:

    Added GOOGLE DRIVE link + MIRROR link! :p
     
  4. SmartBeens

    SmartBeens Well-Known Member

    Joined:
    Oct 5, 2014
    Messages:
    1,358
    Likes Received:
    190
    Great show this :)
     
    CELOBRAZiL likes this.
  5. antoniojoseguizilini

    antoniojoseguizilini Well-Known Member

    Joined:
    Dec 2, 2016
    Messages:
    3,245
    Likes Received:
    302
    obrigado
     
    CELOBRAZiL likes this.
  6. multimediafm

    multimediafm Well-Known Member Archiver Donor

    Joined:
    Mar 27, 2014
    Messages:
    20,676
    Likes Received:
    2,267
    Thanks:victory:i Really appreciate it
     
    CELOBRAZiL likes this.