DVD Ciara - 1,2 Step (Feat. Missy Elliott) (Don Candiani and Carmenantes Super Bounce) (Promo Only) [VOB]

Discussion in 'SD' started by claudio1301, Apr 3, 2021.

  1. claudio1301

    claudio1301 Well-Known Member V . I . P.

    Joined:
    Oct 2, 2018
    Messages:
    1,931
    Likes Received:
    5,033
    [​IMG]
    Code:
    General
    Complete name                  : Ciara - 1,2 Step (Feat. Missy Elliott) (Don Candiani and Carmenantes Super Bounce) (Promo Only).vob
    Format                         : MPEG-PS
    File size                      : 187 MiB
    Duration                       : 3 min 52 s
    Overall bit rate mode          : Variable
    Overall bit rate               : 6 763 kb/s
    
    Video
    ID                             : 224 (0xE0)
    Format                         : MPEG Video
    Format version                 : Version 2
    Format profile                 : Main@Main
    Format settings                : CustomMatrix / BVOP
    Format settings, BVOP          : Yes
    Format settings, Matrix        : Custom
    Format settings, GOP           : Variable
    Format settings, picture struc : Frame
    Duration                       : 3 min 52 s
    Bit rate mode                  : Variable
    Bit rate                       : 5 092 kb/s
    Maximum bit rate               : 8 000 kb/s
    Width                          : 720 pixels
    Height                         : 480 pixels
    Display aspect ratio           : 4:3
    Frame rate                     : 29.970 (30000/1001) FPS
    Standard                       : NTSC
    Color space                    : YUV
    Chroma subsampling             : 4:2:0
    Bit depth                      : 8 bits
    Scan type                      : Interlaced
    Scan order                     : Top Field First
    Compression mode               : Lossy
    Bits/(Pixel*Frame)             : 0.492
    Time code of first frame       : 00:00:00;00
    Time code source               : Group of pictures header
    Stream size                    : 141 MiB (75%)
    Color primaries                : BT.601 NTSC
    Transfer characteristics       : BT.601
    Matrix coefficients            : BT.601
    
    Audio
    ID                             : 189 (0xBD)-160 (0xA0)
    Format                         : PCM
    Format settings                : Big / Signed
    Muxing mode                    : DVD-Video
    Duration                       : 3 min 52 s
    Bit rate mode                  : Constant
    Bit rate                       : 1 536 kb/s
    Channel(s)                     : 2 channels
    Sampling rate                  : 48.0 kHz
    Bit depth                      : 16 bits
    Stream size                    : 42.5 MiB (23%)
    
    Menu
    Host: Mediafire
    Hidden Content:
    You must reply before you can see the hidden data contained here.
     
  2. Loading...


  3. aaliyah2009

    aaliyah2009 Well-Known Member

    Joined:
    Feb 2, 2017
    Messages:
    2,697
    Likes Received:
    188
  4. onurbmoon

    onurbmoon Well-Known Member

    Joined:
    Feb 19, 2018
    Messages:
    1,565
    Likes Received:
    121
    thanks
     
  5. flavs2

    flavs2 Well-Known Member

    Joined:
    May 4, 2020
    Messages:
    144
    Likes Received:
    293
    thanks
     
  6. CELOBRAZiL

    CELOBRAZiL Well-Known Member Capper V . I . P. Donor

    Joined:
    Oct 2, 2013
    Messages:
    11,869
    Likes Received:
    42,632
    Thanks! :)
     
  7. Tiago

    Tiago Well-Known Member

    Joined:
    Dec 7, 2013
    Messages:
    4,161
    Likes Received:
    712
    thnks
     
  8. Denishx

    Denishx Member

    Joined:
    Aug 4, 2014
    Messages:
    394
    Likes Received:
    7
    thanks
     
  9. anthonyecarter

    anthonyecarter Well-Known Member

    Joined:
    Feb 22, 2020
    Messages:
    801
    Likes Received:
    1,627
  10. tetard

    tetard Well-Known Member V . I . P.

    Joined:
    Mar 29, 2014
    Messages:
    5,349
    Likes Received:
    7,321