Cheryl Cole Ft Tinie Tempah - Crazy Stupid Love 1080i HDMania

Discussion in 'MTV LIVE HD' started by Dfrazzer, Apr 23, 2015.

  1. Dfrazzer

    Dfrazzer Super Moderator Staff Member Super Moderator Capper Uploader V . I . P. Donor

    Joined:
    Nov 4, 2013
    Threads:
    2,363
    Messages:
    6,344
    Likes Received:
    19,776
    [​IMG] [​IMG] [​IMG] [​IMG] [​IMG] [​IMG] [​IMG] [​IMG] [​IMG] [​IMG] [​IMG] [​IMG]

    Code:
    General
    ID : 1 (0x1)
    Complete name : C:\Users\Dfrazzer\Desktop\Cheryl Cole Ft Tinie Tempah - Crazy Stupid Love 1080i HDMania.ts
    Format : MPEG-TS
    File size : 383 MiB
    Duration : 4mn 5s
    Overall bit rate mode : Variable
    Overall bit rate : 13.1 Mbps
    
    Video
    ID : 100 (0x64)
    Menu ID : 2 (0x2)
    Format : AVC
    Format/Info : Advanced Video Codec
    Format profile : High@L4.0
    Format settings, CABAC : Yes
    Format settings, ReFrames : 2 frames
    Codec ID : 27
    Duration : 4mn 5s
    Bit rate mode : Variable
    Bit rate : 11.8 Mbps
    Maximum bit rate : 24.0 Mbps
    Width : 1 920 pixels
    Height : 1 080 pixels
    Display aspect ratio : 16:9
    Frame rate : 25.000 fps
    Color space : YUV
    Chroma subsampling : 4:2:0
    Bit depth : 8 bits
    Scan type : Interlaced
    Scan order : Top Field First
    Bits/(Pixel*Frame) : 0.227
    Stream size : 345 MiB (90%)
    Color primaries : BT.709
    Transfer characteristics : BT.709
    Matrix coefficients : BT.709
    
    Audio #1
    ID : 101 (0x65)
    Menu ID : 2 (0x2)
    Format : AAC
    Format/Info : Advanced Audio Codec
    Format version : Version 4
    Format profile : LC
    Muxing mode : ADTS
    Codec ID : 15
    Duration : 4mn 5s
    Bit rate mode : Variable
    Bit rate : 220 Kbps
    Channel(s) : 2 channels
    Channel positions : Front: L R
    Sampling rate : 48.0 KHz
    Compression mode : Lossy
    Stream size : 6.44 MiB (2%)
    
    Audio #2
    ID : 102 (0x66)
    Menu ID : 2 (0x2)
    Format : AAC
    Format/Info : Advanced Audio Codec
    Format version : Version 4
    Format profile : LC
    Muxing mode : ADTS
    Codec ID : 15
    Duration : 4mn 5s
    Bit rate mode : Variable
    Bit rate : 220 Kbps
    Channel(s) : 2 channels
    Channel positions : Front: L R
    Sampling rate : 48.0 KHz
    Compression mode : Lossy
    Stream size : 6.43 MiB (2%)
    
    Audio #3
    ID : 103 (0x67)
    Menu ID : 2 (0x2)
    Format : AAC
    Format/Info : Advanced Audio Codec
    Format version : Version 4
    Format profile : LC
    Muxing mode : ADTS
    Codec ID : 15
    Duration : 4mn 5s
    Bit rate mode : Variable
    Bit rate : 220 Kbps
    Channel(s) : 2 channels
    Channel positions : Front: L R
    Sampling rate : 48.0 KHz
    Compression mode : Lossy
    Stream size : 6.43 MiB (2%)
    

    Hidden Content:
    You must reply before you can see the hidden data contained here.
    Capped by me.
     
    Last edited: Aug 24, 2015
  2. Loading...


  3. 777josem

    777josem ProRes 1080p LPCM Uploader V . I . P.

    Joined:
    Sep 1, 2014
    Threads:
    1,100
    Messages:
    3,903
    Likes Received:
    6,209
    Thank you!
     
  4. rhea

    rhea Well-Known Member

    Joined:
    Jan 6, 2014
    Threads:
    0
    Messages:
    12,751
    Likes Received:
    2,519
    thank you so much!
     
  5. dangtungson

    dangtungson Active Member

    Joined:
    Feb 22, 2014
    Threads:
    2
    Messages:
    738
    Likes Received:
    83
    thank you so much!
     
  6. il palazzo3

    il palazzo3 New Member

    Joined:
    May 18, 2015
    Threads:
    0
    Messages:
    16
    Likes Received:
    0
    Oh man, her tummy
     
  7. multimediafm

    multimediafm Well-Known Member V . I . P. Collector Donor

    Joined:
    Mar 27, 2014
    Threads:
    44
    Messages:
    23,089
    Likes Received:
    3,329
    Thanks :)
    Cheryl Cole Ft Tinie Tempah - Crazy Stupid Love 1080i HDMania
     
  8. Arjun

    Arjun New Member

    Joined:
    Dec 7, 2014
    Threads:
    0
    Messages:
    18
    Likes Received:
    1
    thanks
     
  9. Vinny

    Vinny Well-Known Member

    Joined:
    Dec 26, 2013
    Threads:
    0
    Messages:
    5,387
    Likes Received:
    133
    Thank U!
     
  10. DETOXIC

    DETOXIC Super Moderator Staff Member Super Moderator Uploader V . I . P. Collector Cloud Drive Ripper

    Joined:
    Feb 20, 2014
    Threads:
    5,382
    Messages:
    7,971
    Likes Received:
    119,149
    Thank you so much!
     
  11. waat

    waat Member

    Joined:
    Jan 19, 2015
    Threads:
    0
    Messages:
    471
    Likes Received:
    12
    Thank you!
     
  12. ytyh

    ytyh Member

    Joined:
    Mar 30, 2014
    Threads:
    0
    Messages:
    432
    Likes Received:
    4
    Thank you so much
     
  13. rikstar

    rikstar Member

    Joined:
    Dec 3, 2015
    Threads:
    0
    Messages:
    273
    Likes Received:
    23
    thank you very much
     
  14. Rorschach95

    Rorschach95 Member

    Joined:
    Jun 12, 2016
    Threads:
    0
    Messages:
    285
    Likes Received:
    2
    thank you
     
  15. Praveen867

    Praveen867 Well-Known Member

    Joined:
    Nov 14, 2016
    Threads:
    0
    Messages:
    1,218
    Likes Received:
    67
    Dfrazzer
     
  16. DiVenturas

    DiVenturas Well-Known Member

    Joined:
    Oct 21, 2015
    Threads:
    1
    Messages:
    3,556
    Likes Received:
    267
  17. GuruPitka

    GuruPitka Active Member

    Joined:
    Apr 3, 2014
    Threads:
    6
    Messages:
    1,152
    Likes Received:
    21
  18. gkgkdldy11

    gkgkdldy11 Member

    Joined:
    Oct 31, 2016
    Threads:
    0
    Messages:
    194
    Likes Received:
    8
    thank you!
     
  19. abtoons89

    abtoons89 Member

    Joined:
    Dec 12, 2017
    Threads:
    1
    Messages:
    44
    Likes Received:
    15
  20. alifaxa

    alifaxa [img]https://i.imgur.com/1qWmW4S.gif[/img] Uploader V . I . P.

    Joined:
    Oct 21, 2015
    Threads:
    542
    Messages:
    4,053
    Likes Received:
    4,629
  21. akon111

    akon111 Well-Known Member Uploader

    Joined:
    Dec 29, 2015
    Threads:
    362
    Messages:
    827
    Likes Received:
    635
    thanks