Cats On Trees - Love You Like A Love Song (MTVIdol-1080i-DD2.0)-Olgold

Discussion in 'MTV IDOL' started by Olgold, Apr 14, 2017.

  1. Olgold

    Olgold Well-Known Member Capper

    Joined:
    Aug 19, 2015
    Messages:
    436
    Likes Received:
    2,101
    Cats On Trees - Love You Like A Love Song
    [​IMG]
    General
    Format : MPEG-TS
    File size : 88.2 MiB
    Duration : 2 min 58 s
    Overall bit rate mode : Variable
    Overall bit rate : 4 134 kb/s

    Video
    Format : AVC
    Format/Info : Advanced Video Codec
    Format profile : High@L4
    Format settings, CABAC : Yes
    Format settings, ReFrames : 4 frames
    Duration : 2 min 58 s
    Bit rate : 3 735 kb/s
    Width : 1 920 pixels
    Height : 1 080 pixels
    Display aspect ratio : 16:9
    Frame rate : 25.000 FPS
    Standard : Component
    Color space : YUV
    Chroma subsampling : 4:2:0
    Bit depth : 8 bits
    Scan type : MBAFF
    Scan type, store method : Interleaved fields
    Scan order : Top Field First
    Bits/(Pixel*Frame) : 0.072
    Stream size : 79.5 MiB (90%)

    Audio
    Format : AC-3
    Format/Info : Audio Coding 3
    Mode extension : CM (complete main)
    Format settings, Endianness : Big
    Duration : 2 min 58 s
    Bit rate mode : Constant
    Bit rate : 192 kb/s
    Channel(s) : 2 channels
    Channel positions : Front: L R
    Sampling rate : 48.0 kHz
    Frame rate : 31.250 FPS (1536 spf)
    Compression mode : Lossy
    Delay relative to video : -28 ms
    Stream size : 4.09 MiB (5%)
    Password: Olgold

    Hidden Content:
    You must reply before you can see the hidden data contained here.
     
    rhea and CELOBRAZiL like this.
  2. CELOBRAZiL

    CELOBRAZiL Well-Known Member Capper V . I . P. Donor

    Joined:
    Oct 2, 2013
    Messages:
    12,761
    Likes Received:
    45,857
    Thank you so much! :)
     
  3. tranmanduy

    tranmanduy Member

    Joined:
    Jan 5, 2017
    Messages:
    200
    Likes Received:
    9
    thank you
     
  4. rhea

    rhea Well-Known Member

    Joined:
    Jan 6, 2014
    Messages:
    11,925
    Likes Received:
    2,363
    thanks
     
  5. brownbradpitt613

    brownbradpitt613 Active Member

    Joined:
    Sep 3, 2017
    Messages:
    755
    Likes Received:
    33
    grazzie!
     
  6. Malitaxd

    Malitaxd Active Member

    Joined:
    Jun 21, 2019
    Messages:
    595
    Likes Received:
    39
    graciasss
     
  7. beryozael

    beryozael Well-Known Member

    Joined:
    Oct 25, 2020
    Messages:
    1,805
    Likes Received:
    119
    спасибо