UHDTV 4K BTS - Permission to Dance (Live At UNGA - SDG Moment 2021) (Extended ver.) 4K & 1080p

Discussion in 'HD Live Performances' started by Magenta, Sep 20, 2021.

  1. Magenta

    Magenta Well-Known Member V . I . P. Uploader

    Joined:
    Dec 15, 2015
    Messages:
    1,842
    Likes Received:
    16,020
    [​IMG]
    General

    Format : Matroska
    Format version : Version 4 / Version 2
    File size : 384 MiB
    Duration : 3 min 53 s
    Overall bit rate : 13.8 Mb/s

    Video
    ID : 1
    Format : VP9
    Codec ID : V_VP9
    Duration : 3 min 53 s
    Width : 3 110 pixels
    Height : 2 160 pixels
    Display aspect ratio : 1.440
    Frame rate mode : Constant
    Frame rate : 24.000 FPS
    Default : Yes
    Forced : No

    Audio
    ID : 2
    Format : Opus
    Codec ID : A_OPUS
    Duration : 3 min 53 s
    Channel(s) : 2 channels
    Channel positions : Front: L R
    Sampling rate : 48.0 kHz
    Bit depth : 16 bits
    Compression mode : Lossy
    Default : Yes
    Forced : No
    [​IMG]
    General

    Format : MPEG-4
    Format profile : Base Media
    Codec ID : isom (isom/iso2/avc1/mp41)
    File size : 108 MiB
    Duration : 3 min 43 s
    Overall bit rate mode : Variable
    Overall bit rate : 4 061 kb/s

    Video
    ID : 1
    Format : AVC
    Format/Info : Advanced Video Codec
    Format profile : High@L4
    Format settings, CABAC : Yes
    Format settings, RefFrames : 3 frames
    Codec ID : avc1
    Codec ID/Info : Advanced Video Coding
    Duration : 3 min 43 s
    Bit rate : 3 931 kb/s
    Width : 1 920 pixels
    Height : 1 080 pixels
    Display aspect ratio : 16:9
    Frame rate mode : Constant
    Frame rate : 29.970 (30000/1001) FPS
    Color space : YUV
    Chroma subsampling : 4:2:0
    Bit depth : 8 bits
    Scan type : Progressive
    Bits/(Pixel*Frame) : 0.063
    Stream size : 105 MiB (97%)
    Color range : Limited
    Color primaries : BT.709
    Transfer characteristics : BT.709
    Matrix coefficients : BT.709

    Audio
    ID : 2
    Format : AAC
    Format/Info : Advanced Audio Codec
    Format profile : LC
    Codec ID : 40
    Duration : 3 min 43 s
    Bit rate mode : Variable
    Bit rate : 128 kb/s
    Channel(s) : 2 channels
    Channel positions : Front: L R
    Sampling rate : 44.1 kHz
    Frame rate : 43.066 FPS (1024 SPF)
    Compression mode : Lossy
    Stream size : 3.41 MiB (3%)
    Title : ISO Media file produced by Google Inc.
    Language : English
    Default : Yes
    LINK: G-Drive
    4K

    Hidden Content:
    You must either reply or click 'Like' to see the hidden information contained here.
    1080p
    Hidden Content:
    You must either reply or click 'Like' to see the hidden information contained here.
     
    Last edited: Sep 21, 2021
  2. Loading...


  3. theclimb

    theclimb Well-Known Member

    Joined:
    Dec 16, 2014
    Messages:
    2,167
    Likes Received:
    1,656
    Thank you
     
    videohigh and Magenta like this.
  4. bellastory

    bellastory Well-Known Member

    Joined:
    Sep 16, 2020
    Messages:
    432
    Likes Received:
    335
    BTS! thanks
     
    Magenta likes this.
  5. videohigh

    videohigh Well-Known Member

    Joined:
    May 19, 2020
    Messages:
    629
    Likes Received:
    442
    thank you
     
  6. videohigh

    videohigh Well-Known Member

    Joined:
    May 19, 2020
    Messages:
    629
    Likes Received:
    442
    thank you
     
  7. onceandagain

    onceandagain Active Member

    Joined:
    May 19, 2020
    Messages:
    414
    Likes Received:
    239
  8. melodie

    melodie Well-Known Member V . I . P. Uploader

    Joined:
    Dec 29, 2020
    Messages:
    1,945
    Likes Received:
    7,414
    Thanks!
     
    Magenta likes this.
  9. kimsoohyun

    kimsoohyun Active Member

    Joined:
    May 19, 2020
    Messages:
    321
    Likes Received:
    192
    Thank u.
     
  10. Olsen

    Olsen Active Member

    Joined:
    Aug 3, 2021
    Messages:
    184
    Likes Received:
    38
    Thanks bro.
     
  11. danesim

    danesim Active Member

    Joined:
    May 20, 2020
    Messages:
    414
    Likes Received:
    202
    thanks
     
  12. Adele

    Adele Active Member

    Joined:
    Apr 14, 2021
    Messages:
    282
    Likes Received:
    204
    thanks
     
  13. storeofdreams

    storeofdreams Active Member

    Joined:
    Dec 20, 2020
    Messages:
    374
    Likes Received:
    222
    Thank you!
     
  14. mvmaster

    mvmaster Active Member

    Joined:
    Oct 19, 2020
    Messages:
    393
    Likes Received:
    177
    Nice. Tnx
     
  15. timbe

    timbe Well-Known Member

    Joined:
    Nov 22, 2020
    Messages:
    450
    Likes Received:
    252
    thank you!
     
  16. KatyHDfan

    KatyHDfan Active Member

    Joined:
    Jun 25, 2019
    Messages:
    396
    Likes Received:
    234
  17. timbe

    timbe Well-Known Member

    Joined:
    Nov 22, 2020
    Messages:
    450
    Likes Received:
    252
    Thank you.
     
  18. kedy

    kedy Well-Known Member

    Joined:
    Nov 24, 2020
    Messages:
    480
    Likes Received:
    350
    thankss
     
  19. these days

    these days Active Member

    Joined:
    Nov 23, 2020
    Messages:
    323
    Likes Received:
    171
    Thank you
     
  20. Shakira

    Shakira Active Member

    Joined:
    Jan 4, 2019
    Messages:
    362
    Likes Received:
    208
    gracias
     
  21. ControlBeat

    ControlBeat Active Member

    Joined:
    Mar 26, 2018
    Messages:
    215
    Likes Received:
    113