Britney Spears - Hold It Against Me (MTV LIVE HD)

Discussion in 'MTV LIVE HD' started by DETOXIC, Apr 30, 2014.

  1. DETOXIC

    DETOXIC Super Moderator Staff Member Super Moderator Uploader V . I . P. Collector Cloud Drive Ripper

    Joined:
    Feb 20, 2014
    Threads:
    5,382
    Messages:
    7,971
    Likes Received:
    119,147
    [​IMG]

    General
    ID : 1 (0x1)
    Complete name : Hold It Against Me (MTV LIVE HD).ts
    Format : MPEG-TS
    File size : 348 MiB
    Duration : 4mn 22s
    Overall bit rate mode : Variable
    Overall bit rate : 11.1 Mbps

    Video
    ID : 4096 (0x1000)
    Menu ID : 1 (0x1)
    Format : AVC
    Format/Info : Advanced Video Codec
    Format profile : Main@L4.0
    Format settings, CABAC : Yes
    Format settings, ReFrames : 4 frames
    Codec ID : 27
    Duration : 4mn 22s
    Bit rate : 10.2 Mbps
    Width : 1 920 pixels
    Height : 1 080 pixels
    Display aspect ratio : 16:9
    Frame rate : 25.000 fps
    Color space : YUV
    Chroma subsampling : 4:2:0
    Bit depth : 8 bits
    Scan type : Interlaced
    Scan order : Top Field First
    Bits/(Pixel*Frame) : 0.197
    Stream size : 319 MiB (92%)
    Color primaries : BT.709
    Transfer characteristics : BT.709
    Matrix coefficients : BT.709

    Audio
    ID : 4097 (0x1001)
    Menu ID : 1 (0x1)
    Format : AC-3
    Format/Info : Audio Coding 3
    Mode extension : CM (complete main)
    Format settings, Endianness : Big
    Codec ID : 6
    Duration : 4mn 22s
    Bit rate mode : Constant
    Bit rate : 384 Kbps
    Channel(s) : 2 channels
    Channel positions : Front: L R
    Sampling rate : 48.0 KHz
    Bit depth : 16 bits
    Compression mode : Lossy
    Stream size : 12.0 MiB (3%)
    Language : English


    DOWNLOAD:

    MEGA

    Hidden Content:
    You must reply before you can see the hidden data contained here.
    Password: DETOX
     
  2. Loading...


  3. rhea

    rhea Well-Known Member

    Joined:
    Jan 6, 2014
    Threads:
    0
    Messages:
    12,750
    Likes Received:
    2,519
    thank you
     
  4. Binh

    Binh Member

    Joined:
    Nov 18, 2013
    Threads:
    0
    Messages:
    86
    Likes Received:
    1
    Thanks!
     
  5. Joseph

    Joseph Active Member

    Joined:
    Dec 10, 2013
    Threads:
    95
    Messages:
    788
    Likes Received:
    241
    thanks! :D
     
  6. 江雨燃双鱼

    江雨燃双鱼 Active Member

    Joined:
    Apr 5, 2014
    Threads:
    5
    Messages:
    908
    Likes Received:
    91
  7. boy

    boy Well-Known Member

    Joined:
    Dec 19, 2013
    Threads:
    9
    Messages:
    1,140
    Likes Received:
    56
    thanks
     
  8. grepitu

    grepitu Member

    Joined:
    Feb 1, 2014
    Threads:
    0
    Messages:
    157
    Likes Received:
    9
     
  9. mike gunen

    mike gunen Well-Known Member

    Joined:
    Nov 9, 2013
    Threads:
    0
    Messages:
    1,257
    Likes Received:
    76
    Thanks!
     
  10. ericbook

    ericbook Member

    Joined:
    Jan 3, 2014
    Threads:
    0
    Messages:
    226
    Likes Received:
    5
    thanks!!
     
  11. Yz007

    Yz007 New Member

    Joined:
    May 19, 2014
    Threads:
    0
    Messages:
    16
    Likes Received:
    0
    thanks you !!
     
  12. johymbim

    johymbim Member

    Joined:
    Jul 30, 2014
    Threads:
    0
    Messages:
    656
    Likes Received:
    21
    Thanks!
     
  13. vborgof

    vborgof Member

    Joined:
    Jun 22, 2014
    Threads:
    1
    Messages:
    404
    Likes Received:
    15
    Thanks
     
  14. DULA PEEP

    DULA PEEP October 21, Meet Taylor at Midnight Staff Member Super Moderator Uploader V . I . P. Cloud Drive

    Joined:
    Dec 4, 2014
    Threads:
    768
    Messages:
    3,626
    Likes Received:
    18,284
    Thank u!!
     
  15. DULA PEEP

    DULA PEEP October 21, Meet Taylor at Midnight Staff Member Super Moderator Uploader V . I . P. Cloud Drive

    Joined:
    Dec 4, 2014
    Threads:
    768
    Messages:
    3,626
    Likes Received:
    18,284
    Thank u!!
     
  16. 777josem

    777josem ProRes 1080p LPCM Uploader V . I . P.

    Joined:
    Sep 1, 2014
    Threads:
    1,100
    Messages:
    3,903
    Likes Received:
    6,209
    thanks!
     
  17. G D

    G D Member

    Joined:
    Dec 1, 2014
    Threads:
    0
    Messages:
    206
    Likes Received:
    3
    thanks
     
  18. yanpj7

    yanpj7 Active Member

    Joined:
    Jan 4, 2015
    Threads:
    0
    Messages:
    646
    Likes Received:
    69
    thank you
     
  19. Joseph

    Joseph Active Member

    Joined:
    Dec 10, 2013
    Threads:
    95
    Messages:
    788
    Likes Received:
    241
    thank you
     
  20. sebasswift

    sebasswift Member

    Joined:
    Oct 26, 2015
    Threads:
    0
    Messages:
    116
    Likes Received:
    5
    suban mas musica actual
     
  21. Attention

    Attention Active Member

    Joined:
    Nov 30, 2013
    Threads:
    2
    Messages:
    554
    Likes Received:
    40