DVD Boyz II Men - Can't Let Her Go (Clean) [VOB]

Discussion in 'SD' started by claudio1301, Jul 20, 2021.

  1. claudio1301

    claudio1301 Well-Known Member V . I . P.

    Joined:
    Oct 2, 2018
    Messages:
    2,052
    Likes Received:
    5,350
    [​IMG]
    Code:
    General
    Complete name                  : Boyz II Men - Can't Let Her Go (Clean).vob
    Format                         : MPEG-PS
    File size                      : 273 MiB
    Duration                       : 4 min 2 s
    Overall bit rate mode          : Variable
    Overall bit rate               : 9 454 kb/s
    
    Video
    ID                             : 224 (0xE0)
    Format                         : MPEG Video
    Format version                 : Version 2
    Format profile                 : Main@Main
    Format settings                : CustomMatrix / BVOP
    Format settings, BVOP          : Yes
    Format settings, Matrix        : Custom
    Format settings, GOP           : Variable
    Duration                       : 4 min 2 s
    Bit rate mode                  : Variable
    Bit rate                       : 7 730 kb/s
    Maximum bit rate               : 8 000 kb/s
    Width                          : 720 pixels
    Height                         : 576 pixels
    Display aspect ratio           : 4:3
    Frame rate                     : 25.000 FPS
    Standard                       : PAL
    Color space                    : YUV
    Chroma subsampling             : 4:2:0
    Bit depth                      : 8 bits
    Scan type                      : Progressive
    Compression mode               : Lossy
    Bits/(Pixel*Frame)             : 0.746
    Time code of first frame       : 00:00:00:00
    Time code source               : Group of pictures header
    Stream size                    : 223 MiB (82%)
    Color primaries                : BT.601 PAL
    Transfer characteristics       : BT.470 System B/G
    Matrix coefficients            : BT.470 System B/G
    
    Audio
    ID                             : 189 (0xBD)-160 (0xA0)
    Format                         : PCM
    Format settings                : Big / Signed
    Muxing mode                    : DVD-Video
    Duration                       : 4 min 2 s
    Bit rate mode                  : Constant
    Bit rate                       : 1 536 kb/s
    Channel(s)                     : 2 channels
    Sampling rate                  : 48.0 kHz
    Bit depth                      : 16 bits
    Stream size                    : 44.4 MiB (16%)
    
    Menu
    Host: Mediafire
    Hidden Content:
    You must reply before you can see the hidden data contained here.
     
    multimediafm and GorgeousGemini like this.
  2. Loading...


  3. GorgeousGemini

    GorgeousGemini Well-Known Member

    Joined:
    Aug 9, 2017
    Messages:
    1,636
    Likes Received:
    93
    thank u so much
     
  4. multimediafm

    multimediafm Well-Known Member Archiver Donor

    Joined:
    Mar 27, 2014
    Messages:
    21,070
    Likes Received:
    2,505
  5. Buti

    Buti Well-Known Member

    Joined:
    Apr 23, 2019
    Messages:
    1,247
    Likes Received:
    38
    thanx