CC Bonnie Tyler - Holding Out For A Hero (PARAMOUNTHD-1080i-DD2.0-CELOBRAZiL) [CC]-HDMania

Discussion in 'PARAMOUNT' started by Snorom6, Jun 7, 2016.

  1. Snorom6

    Snorom6 Well-Known Member V . I . P. Uploader

    Joined:
    Dec 17, 2015
    Messages:
    4,246
    Likes Received:
    9,595
    Bonnie Tyler - Holding Out For A Hero (PARAMOUNTHD-1080i-DD2.0-CELOBRAZiL) [CC]-HDMania


    [​IMG]


    Code:
    General
    ID                             : 1 (0x1)
    Complete name                  : Bonnie Tyler - Holding Out For A Hero (PARAMOUNTHD-1080i-DD2.0-CELOBRAZiL) [CC]-HDMania.ts
    Format                         : MPEG-TS
    File size                      : 252 MiB
    Duration                       : 4mn 43s
    Overall bit rate mode          : Variable
    Overall bit rate               : 7 454 Kbps
    
    Video
    ID                             : 5376 (0x1500)
    Menu ID                        : 658 (0x292)
    Format                         : AVC
    Format/Info                    : Advanced Video Codec
    Format profile                 : High@L4
    Format settings, CABAC         : Yes
    Format settings, ReFrames      : 3 frames
    Codec ID                       : 27
    Duration                       : 4mn 43s
    Bit rate                       : 6 698 Kbps
    Width                          : 1 920 pixels
    Height                         : 1 080 pixels
    Display aspect ratio           : 16:9
    Frame rate                     : 29.970 fps
    Color space                    : YUV
    Chroma subsampling             : 4:2:0
    Bit depth                      : 8 bits
    Scan type                      : MBAFF
    Scan order                     : Top Field First
    Bits/(Pixel*Frame)             : 0.108
    Stream size                    : 226 MiB (90%)
    
    Audio #1
    ID                             : 5377 (0x1501)
    Menu ID                        : 658 (0x292)
    Format                         : AC-3
    Format/Info                    : Audio Coding 3
    Mode extension                 : CM (complete main)
    Format settings, Endianness    : Big
    Codec ID                       : 129
    Duration                       : 4mn 43s
    Bit rate mode                  : Constant
    Bit rate                       : 192 Kbps
    Channel(s)                     : 2 channels
    Channel positions              : Front: L R
    Sampling rate                  : 48.0 KHz
    Compression mode               : Lossy
    Delay relative to video        : -67ms
    Stream size                    : 6.49 MiB (3%)
    Language                       : Portuguese
    
    Audio #2
    ID                             : 5378 (0x1502)
    Menu ID                        : 658 (0x292)
    Format                         : AC-3
    Format/Info                    : Audio Coding 3
    Mode extension                 : CM (complete main)
    Format settings, Endianness    : Big
    Codec ID                       : 129
    Duration                       : 4mn 43s
    Bit rate mode                  : Constant
    Bit rate                       : 192 Kbps
    Channel(s)                     : 2 channels
    Channel positions              : Front: L R
    Sampling rate                  : 48.0 KHz
    Compression mode               : Lossy
    Delay relative to video        : -67ms
    Stream size                    : 6.49 MiB (3%)
    Language                       : English
    
    Text #1
    ID                             : 5376 (0x1500)-CC1
    Menu ID                        : 658 (0x292)
    Format                         : EIA-608
    Muxing mode                    : SCTE 128 / DTVCC Transport
    Muxing mode, more info         : Muxed in Video #1
    Duration                       : 4mn 43s
    Bit rate mode                  : Constant
    Stream size                    : 0.00 Byte (0%)
    
    Text #2
    ID                             : 5376 (0x1500)-CC4
    Menu ID                        : 658 (0x292)
    Format                         : EIA-608
    Muxing mode                    : SCTE 128 / DTVCC Transport
    Muxing mode, more info         : Muxed in Video #1
    Duration                       : 4mn 43s
    Bit rate mode                  : Constant
    Stream size                    : 0.00 Byte (0%)
    
    Text #3
    ID                             : 5376 (0x1500)-1
    Menu ID                        : 658 (0x292)
    Format                         : EIA-708
    Muxing mode                    : SCTE 128 / DTVCC Transport
    Muxing mode, more info         : Muxed in Video #1
    Duration                       : 4mn 43s
    Bit rate mode                  : Constant
    Stream size                    : 0.00 Byte (0%)
    
    

    Hidden Content:
    You must either reply or click 'Like' to see the hidden information contained here.
    Hidden Content:
    You must either reply or click 'Like' to see the hidden information contained here.
     
  2. Loading...


  3. muratguren

    muratguren Well-Known Member

    Joined:
    Mar 6, 2016
    Messages:
    2,850
    Likes Received:
    71
    thank you
     
  4. tapions

    tapions Well-Known Member

    Joined:
    Aug 30, 2016
    Messages:
    1,296
    Likes Received:
    137
    gracias
     
  5. janlyn

    janlyn Member

    Joined:
    Aug 10, 2017
    Messages:
    444
    Likes Received:
    18
    thanks
     
  6. CristianMatias

    CristianMatias Next Generations

    Joined:
    Sep 17, 2016
    Messages:
    1,380
    Likes Received:
    459
    Bonnie Tyler - Holding Out For A Hero
     
  7. zeqonbritney

    zeqonbritney Well-Known Member

    Joined:
    Dec 2, 2015
    Messages:
    820
    Likes Received:
    353
  8. Tzonis

    Tzonis Member

    Joined:
    Aug 28, 2018
    Messages:
    64
    Likes Received:
    8
    thanks
     
  9. waldison

    waldison Member

    Joined:
    Sep 24, 2018
    Messages:
    193
    Likes Received:
    6
  10. waldison

    waldison Member

    Joined:
    Sep 24, 2018
    Messages:
    193
    Likes Received:
    6
  11. Riuky

    Riuky Member

    Joined:
    Oct 18, 2018
    Messages:
    46
    Likes Received:
    6
    thanks
     
  12. tn5656

    tn5656 Well-Known Member

    Joined:
    Jan 20, 2017
    Messages:
    8,630
    Likes Received:
    702
    Thank you
     
  13. Brungor

    Brungor From The Planet Glamtron

    Joined:
    Dec 9, 2015
    Messages:
    1,609
    Likes Received:
    1,216
    thank u
     
  14. yanjamacaru

    yanjamacaru Well-Known Member

    Joined:
    Dec 21, 2018
    Messages:
    3,001
    Likes Received:
    117
    thnaks
     
  15. kaloke

    kaloke Active Member

    Joined:
    Oct 27, 2016
    Messages:
    681
    Likes Received:
    77
    thanx
     
  16. sulik

    sulik Member

    Joined:
    Oct 5, 2019
    Messages:
    537
    Likes Received:
    7
    Member
     
  17. AssisLee

    AssisLee Member

    Joined:
    Jan 14, 2021
    Messages:
    305
    Likes Received:
    3
  18. xxx81

    xxx81 Well-Known Member

    Joined:
    May 13, 2018
    Messages:
    1,459
    Likes Received:
    38
    thanks
     
  19. mrsko1986

    mrsko1986 Member

    Joined:
    Apr 24, 2021
    Messages:
    242
    Likes Received:
    1