MASTER BLACKPINK - PLAYING WITH FIRE (AAC-Master-1080p)

Discussion in 'MASTER & MASTER RIP' started by nickiexclusive, Dec 12, 2016.

  1. nickiexclusive

    nickiexclusive Video Maniac V . I . P. Uploader

    Joined:
    Sep 23, 2014
    Messages:
    3,354
    Likes Received:
    19,742
    BLACKPINK - PLAYING WITH FIRE (AAC-Master-1080p)​
    i love this song rn. :lol::oops:
    [​IMG]
    General
    Complete name : BLACKPINK - PLAYING WITH FIRE (AAC-Vimeo-1080p-Abdi).mp4
    Format : MPEG-4
    Format profile : Base Media / Version 2
    Codec ID : mp42
    File size : 426 MiB
    Duration : 3mn 22s
    Overall bit rate mode : Variable
    Overall bit rate : 17.7 Mbps
    Encoded date : UTC 2016-10-31 19:37:30
    Tagged date : UTC 2016-10-31 19:37:34
    ©TIM : 23:58:32:06
    ©TSC : 24000
    ©TSZ : 1001

    Video
    ID : 1
    Format : AVC
    Format/Info : Advanced Video Codec
    Format profile : Main@L4.1
    Format settings, CABAC : Yes
    Format settings, ReFrames : 3 frames
    Codec ID : avc1
    Codec ID/Info : Advanced Video Coding
    Duration : 3mn 22s
    Bit rate : 17.4 Mbps
    Width : 1 920 pixels
    Height : 1 080 pixels
    Display aspect ratio : 16:9
    Frame rate mode : Constant
    Frame rate : 23.976 fps
    Standard : NTSC
    Color space : YUV
    Chroma subsampling : 4:2:0
    Bit depth : 8 bits
    Scan type : Progressive
    Bits/(Pixel*Frame) : 0.351
    Stream size : 420 MiB (99%)
    Language : English
    Encoded date : UTC 2016-10-31 19:37:30
    Tagged date : UTC 2016-10-31 19:37:30
    Color range : Limited
    Color primaries : BT.709
    Transfer characteristics : BT.709
    Matrix coefficients : BT.709

    Audio
    ID : 2
    Format : AAC
    Format/Info : Advanced Audio Codec
    Format profile : LC
    Codec ID : 40
    Duration : 3mn 22s
    Source duration : 3mn 22s
    Bit rate mode : Variable
    Bit rate : 253 Kbps
    Maximum bit rate : 400 Kbps
    Channel(s) : 2 channels
    Channel positions : Front: L R
    Sampling rate : 48.0 KHz
    Compression mode : Lossy
    Stream size : 6.10 MiB (1%)
    Source stream size : 6.11 MiB (1%)
    Language : English
    Encoded date : UTC 2016-10-31 19:37:30
    Tagged date : UTC 2016-10-31 19:37:30
    Hidden Content:
    You must reply before you can see the hidden data contained here.
     
    Last edited: Jul 5, 2017
  2. Loading...


  3. nolynexor88

    nolynexor88 nolynexor88

    Joined:
    Sep 29, 2015
    Messages:
    2,294
    Likes Received:
    244
    thank you
     
  4. tenfour

    tenfour Member

    Joined:
    Dec 22, 2015
    Messages:
    640
    Likes Received:
    20
    Thanks!!
     
  5. Athos

    Athos Well-Known Member

    Joined:
    Dec 28, 2013
    Messages:
    328
    Likes Received:
    293
    thank u
     
  6. PatrickMinecraft

    PatrickMinecraft World Music

    Joined:
    May 29, 2016
    Messages:
    72
    Likes Received:
    1
    :) Good Thanks
     
  7. UHD4K

    UHD4K Soriel Kobayashi

    Joined:
    Oct 30, 2016
    Messages:
    503
    Likes Received:
    1,122
    Tendrás el máster de Stay with me?
     
  8. Outlaw

    Outlaw Member

    Joined:
    Sep 25, 2016
    Messages:
    131
    Likes Received:
    2
    Thanks so much
     
  9. lucash

    lucash Active Member

    Joined:
    Nov 25, 2013
    Messages:
    719
    Likes Received:
    63
    Thank you
     
  10. jhl2016

    jhl2016 Member

    Joined:
    Mar 25, 2016
    Messages:
    225
    Likes Received:
    10
    thank u!
     
  11. BobPerry

    BobPerry Member

    Joined:
    Dec 7, 2015
    Messages:
    304
    Likes Received:
    5
    thank u so much
     
  12. JUNINHOSZ

    JUNINHOSZ Well-Known Member

    Joined:
    May 23, 2014
    Messages:
    3,957
    Likes Received:
    140
  13. yuto123

    yuto123 Member

    Joined:
    Mar 6, 2017
    Messages:
    115
    Likes Received:
    4
    thanks
     
  14. zyao

    zyao Member

    Joined:
    Oct 12, 2016
    Messages:
    498
    Likes Received:
    15
    thanks
     
  15. ruhull.fb

    ruhull.fb Well-Known Member

    Joined:
    May 19, 2017
    Messages:
    1,711
    Likes Received:
    62
    great.....
     
  16. felipefranklin

    felipefranklin Member

    Joined:
    Jun 1, 2017
    Messages:
    132
    Likes Received:
    14
  17. Victor Costa

    Victor Costa Well-Known Member

    Joined:
    Sep 1, 2016
    Messages:
    1,087
    Likes Received:
    68
  18. ryzhel007

    ryzhel007 Member

    Joined:
    Oct 22, 2016
    Messages:
    600
    Likes Received:
    18
    thanks so much.. cool song
     
  19. rhea

    rhea Well-Known Member

    Joined:
    Jan 6, 2014
    Messages:
    12,187
    Likes Received:
    2,440
    dead :(
    re-up plz
     
  20. love_kpop

    love_kpop New Member

    Joined:
    Jul 15, 2017
    Messages:
    2
    Likes Received:
    0
    Thanks....
     
  21. plwww

    plwww Well-Known Member

    Joined:
    May 28, 2016
    Messages:
    1,614
    Likes Received:
    139
    thanks