WEB-RiP Billie Eilish - Your Power + interview (Live On The Late Show with Stephen Colbert 2021.05.10) 1080p.h264-jebaited

Discussion in 'HD Live Performances' started by Magenta, May 12, 2021.

  1. Magenta

    Magenta Well-Known Member V . I . P. Uploader

    Joined:
    Dec 15, 2015
    Messages:
    1,786
    Likes Received:
    11,205
    [​IMG]
    [​IMG]
    [​IMG] [​IMG] [​IMG]
    General

    Format : Matroska
    Format version : Version 4 / Version 2
    File size : 398 MiB
    Duration : 12 min 4 s
    Overall bit rate : 4 610 kb/s

    Video
    ID : 1
    Format : AVC
    Format/Info : Advanced Video Codec
    Format profile : High@L4
    Format settings, CABAC : Yes
    Format settings, RefFrames : 4 frames
    Codec ID : V_MPEG4/ISO/AVC
    Duration : 12 min 4 s
    Bit rate : 4 482 kb/s
    Width : 1 920 pixels
    Height : 1 080 pixels
    Display aspect ratio : 16:9
    Frame rate mode : Constant
    Frame rate : 29.970 (30000/1001) FPS
    Color space : YUV
    Chroma subsampling : 4:2:0
    Bit depth : 8 bits
    Scan type : Progressive
    Bits/(Pixel*Frame) : 0.072
    Stream size : 387 MiB (97%)
    Default : Yes
    Forced : No

    Audio
    ID : 2
    Format : AAC
    Format/Info : Advanced Audio Codec
    Format profile : LC
    Codec ID : A_AAC
    Duration : 12 min 4 s
    Bit rate : 125 kb/s
    Channel(s) : 2 channels
    Channel positions : Front: L R
    Sampling rate : 48.0 kHz
    Frame rate : 46.875 FPS (1024 SPF)
    Compression mode : Lossy
    Delay relative to video : 9 ms
    Stream size : 10.8 MiB (3%)
    Language : English
    Default : Yes
    Forced : No

    Text
    ID : 3
    Format : UTF-8
    Codec ID : S_TEXT/UTF8
    Codec ID/Info : UTF-8 Plain Text
    Duration : 12 min 0 s
    Bit rate : 92 b/s
    Count of elements : 192
    Stream size : 8.16 KiB (0%)
    Language : English
    Default : No
    Forced : No

    Link: G-Drive
     
    tarek, CELOBRAZiL, toonbbv and 16 others like this.
  2. Loading...


  3. timbe

    timbe Active Member

    Joined:
    Nov 22, 2020
    Messages:
    363
    Likes Received:
    124
    Thanks for Billie
     
  4. bellastory

    bellastory Active Member

    Joined:
    Sep 16, 2020
    Messages:
    341
    Likes Received:
    203
  5. theclimb

    theclimb Well-Known Member

    Joined:
    Dec 16, 2014
    Messages:
    2,105
    Likes Received:
    1,040
    thank you!
     
  6. danesim

    danesim Active Member

    Joined:
    May 20, 2020
    Messages:
    323
    Likes Received:
    108
    thanks:)
     
  7. kedy

    kedy Active Member

    Joined:
    Nov 24, 2020
    Messages:
    362
    Likes Received:
    154
    Many thanks
     
  8. lightmyway

    lightmyway Active Member

    Joined:
    Oct 7, 2020
    Messages:
    312
    Likes Received:
    124
    thank you
     
  9. Adele

    Adele Active Member

    Joined:
    Apr 14, 2021
    Messages:
    167
    Likes Received:
    27
    thankss
     
  10. these days

    these days Active Member

    Joined:
    Nov 23, 2020
    Messages:
    272
    Likes Received:
    97
    Thank you.
     
  11. kimsoohyun

    kimsoohyun Active Member

    Joined:
    May 19, 2020
    Messages:
    283
    Likes Received:
    129
  12. mvmaster

    mvmaster Active Member

    Joined:
    Oct 19, 2020
    Messages:
    311
    Likes Received:
    103
    Thank you
     
  13. storeofdreams

    storeofdreams Active Member

    Joined:
    Dec 20, 2020
    Messages:
    309
    Likes Received:
    101
  14. onceandagain

    onceandagain Active Member

    Joined:
    May 19, 2020
    Messages:
    348
    Likes Received:
    124
    Thank you
     
  15. KatyHDfan

    KatyHDfan Active Member

    Joined:
    Jun 25, 2019
    Messages:
    342
    Likes Received:
    140
    Many thanks
     
  16. Shakira

    Shakira Active Member

    Joined:
    Jan 4, 2019
    Messages:
    321
    Likes Received:
    126
    gracias
     
  17. exterminador

    exterminador Well-Known Member

    Joined:
    Jul 3, 2016
    Messages:
    3,926
    Likes Received:
    452
  18. videohigh

    videohigh Active Member

    Joined:
    May 19, 2020
    Messages:
    543
    Likes Received:
    200
    Thanks a lot.
     
  19. videohigh

    videohigh Active Member

    Joined:
    May 19, 2020
    Messages:
    543
    Likes Received:
    200
    Thanks a lot.
     
  20. toonbbv

    toonbbv Well-Known Member

    Joined:
    Dec 11, 2013
    Messages:
    2,843
    Likes Received:
    240
    thank you
     
  21. apnyc

    apnyc Active Member

    Joined:
    Apr 11, 2016
    Messages:
    363
    Likes Received:
    109
    IN_LOVE