Billie Eilish - Xanny (MTVHD-BR-AC3-1080i).-Crusha

Discussion in 'MTV HD' started by Crusha, Aug 1, 2020.

  1. Crusha

    Crusha Well-Known Member Capper Uploader V . I . P.

    Joined:
    Oct 15, 2014
    Threads:
    1,246
    Messages:
    2,568
    Likes Received:
    4,587
    [​IMG]

    General
    ID : 1 (0x1)
    Complete name : Billie Eilish - Xanny (MTVHD-BR-AC3-1080i).-Crusha.ts
    Format : MPEG-TS
    File size : 73.6 MiB
    Duration : 4 min 1 s
    Overall bit rate mode : Variable
    Overall bit rate : 2 552 kb/s

    Video
    ID : 2189 (0x88D)
    Menu ID : 1 (0x1)
    Format : AVC
    Format/Info : Advanced Video Codec
    Format profile : High@L4
    Format settings, CABAC : Yes
    Format settings, RefFrames : 4 frames
    Format settings, GOP : M=8, N=32
    Codec ID : 27
    Duration : 4 min 1 s
    Bit rate : 2 232 kb/s
    Width : 1 920 pixels
    Height : 1 080 pixels
    Display aspect ratio : 16:9
    Frame rate : 29.970 (30000/1001) FPS
    Standard : Component
    Color space : YUV
    Chroma subsampling : 4:2:0
    Bit depth : 8 bits
    Scan type : MBAFF
    Scan type, store method : Interleaved fields
    Scan order : Top Field First
    Bits/(Pixel*Frame) : 0.036
    Stream size : 64.4 MiB (87%)
    Color range : Limited
    Color primaries : BT.709
    Transfer characteristics : BT.709
    Matrix coefficients : BT.709

    Audio
    ID : 3177 (0xC69)
    Menu ID : 1 (0x1)
    Format : AC-3
    Format/Info : Audio Coding 3
    Format settings, Endianness : Big
    Codec ID : 6
    Duration : 4 min 1 s
    Bit rate mode : Constant
    Bit rate : 192 kb/s
    Channel(s) : 2 channels
    Channel positions : Front: L R
    Sampling rate : 48.0 kHz
    Frame rate : 31.250 FPS (1536 SPF)
    Bit depth : 16 bits
    Compression mode : Lossy
    Delay relative to video : -33 ms
    Stream size : 5.54 MiB (8%)
    Language : English
    Service kind : Complete Main

    Hidden Content:
    You must reply before you can see the hidden data contained here.
    Password: crusha​
     
    rhea likes this.
  2. Loading...


  3. rhea

    rhea Well-Known Member

    Joined:
    Jan 6, 2014
    Threads:
    0
    Messages:
    12,495
    Likes Received:
    2,505
    thank you so much :)
     
  4. thalysisonline

    thalysisonline Active Member

    Joined:
    Jul 1, 2020
    Threads:
    2
    Messages:
    141
    Likes Received:
    103
  5. 4mation81

    4mation81 Member

    Joined:
    Apr 29, 2020
    Threads:
    0
    Messages:
    112
    Likes Received:
    7
    Thanks
     
  6. nacho

    nacho New Member

    Joined:
    Jan 6, 2021
    Threads:
    0
    Messages:
    5
    Likes Received:
    0
    gracuias
     
  7. beryozael

    beryozael Well-Known Member

    Joined:
    Oct 25, 2020
    Threads:
    0
    Messages:
    1,785
    Likes Received:
    120
    спасибо