FEED Billie Eilish & FINNEAS - when the party's over (62nd Grammy Awards) (2020) 1080i HDTV BACKHAUL FLAC

Discussion in 'HD Live Performances' started by josevo, Nov 29, 2021.

  1. josevo

    josevo Active Member

    Joined:
    Dec 19, 2020
    Messages:
    419
    Likes Received:
    106
    Billie Eilish & FINNEAS - when the party's over (Live at the 62nd Grammy Awards) (2020) 1080i HDTV BACKHAUL FLAC 5.1 H.264

    [​IMG]

    About:
    Artist: Billie Eilish & FINNEAS.
    Date: January 26, 2020.
    Location: Staples Center, Los Angeles,
    California, United States.
    Language: English.
    Capper: TrollHD

    General:
    Complete name : Billie Eilish & FINNEAS - when the party's over (Live at the 62nd Grammy Awards) (2020) 1080i HDTV BACKHAUL FLAC 5.1 H.264.mkv
    Format : Matroska
    Format version : Version 4
    File size : 912 MiB
    Duration : 3 min 56 s
    Overall bit rate mode : Variable
    Overall bit rate : 32.3 Mb/s
    Encoded date : UTC 2020-01-27 23:41:03
    Writing application : Lavf58.45.100
    Writing library : Lavf58.45.100

    Video:
    ID : 1
    Format : AVC
    Format/Info : Advanced Video Codec
    Format profile : High
    Format level : 4.1
    Format settings, CABAC : Yes
    Format settings, Referenc : 4 frames
    Format settings, GOP : M=4, N=32
    Codec ID : V_MPEG4/ISO/AVC
    Duration : 3 min 56 s
    Bit rate : 29.3 Mb/s
    Width : 1 920 pixels
    Height : 1 080 pixels
    Display aspect ratio : 16:9
    Frame rate mode : Variable
    Frame rate : 2 408.571 FPS
    Original frame rate : 29.970 FPS
    Color space : YUV
    Chroma subsampling : 4:2:0
    Bit depth : 8 bits
    Scan type : Interlaced
    Scan order : Top Field First
    Bits/(Pixel*Frame) : 0.006
    Stream size : 32.5 GiB
    Default : Yes
    Forced : No
    Color range : Limited
    Color primaries : BT.709
    Transfer characteristics : BT.709
    Matrix coefficients : BT.709

    Audio:
    ID : 2
    Format : FLAC
    Format/Info : Free Lossless Audio Codec
    Codec ID : A_FLAC
    Duration : 3 min 56 s
    Bit rate mode : Variable
    Bit rate : 3 309 kb/s
    Channel(s) : 6 channels
    Channel layout : L R C LFE Ls Rs
    Sampling rate : 48.0 kHz
    Frame rate : 471.009 FPS (102 SPF)
    Bit depth : 24 bits
    Compression mode : Lossless
    Delay relative to video : 51 ms
    Stream size : 3.67 GiB
    Language : English
    Default : Yes
    Forced : No

    Hidden Content:
    You must reply before you can see the hidden data contained here.
     
    Last edited: Dec 28, 2021
  2. Loading...


  3. tarek

    tarek Active Member

    Joined:
    Jun 17, 2021
    Messages:
    437
    Likes Received:
    38
    Billie Eilish
     
  4. miguelmr87

    miguelmr87 Well-Known Member

    Joined:
    Dec 20, 2013
    Messages:
    3,745
    Likes Received:
    1,347
    Billie Eilish
     
  5. GMT13

    GMT13 Member

    Joined:
    Dec 6, 2021
    Messages:
    173
    Likes Received:
    13
    thanks ♥ !!
     
    josevo likes this.
  6. amsterdammer83

    amsterdammer83 Member

    Joined:
    Nov 26, 2021
    Messages:
    322
    Likes Received:
    15
    thanks
     
    josevo likes this.
  7. mobil

    mobil Member

    Joined:
    Dec 4, 2020
    Messages:
    130
    Likes Received:
    15
    thanks
     
    josevo likes this.