MASTER Billie Eilish – TIME 100 Performance (MasterRip AVC 1080p)

Discussion in 'HD Live Performances' started by mariellisaa, Nov 28, 2021.

  1. mariellisaa

    mariellisaa Well-Known Member

    Joined:
    Jan 17, 2016
    Messages:
    1,362
    Likes Received:
    1,059
    [​IMG]

    General
    Complete name : C:\Users\Asia\Documents\Billie Eilish – Billie Bosa Nova [TIME 100 Performance] (MasterRip AVC 1080p) – 2021.mp4
    Format : MPEG-4
    Format profile : Base Media / Version 2
    Codec ID : mp42 (mp42/mp41)
    File size : 441 MiB
    Duration : 2 min 52 s
    Overall bit rate mode : Variable
    Overall bit rate : 21.4 Mb/s
    Encoded date : UTC 2021-11-28 18:19:18
    Tagged date : UTC 2021-11-28 18:19:20
    TIM : 00:00:00:00
    TSC : 24000
    TSZ : 1001

    Video
    ID : 1
    Format : AVC
    Format/Info : Advanced Video Codec
    Format profile : High@L4.2
    Format settings : CABAC / 1 Ref Frames
    Format settings, CABAC : Yes
    Format settings, Reference frames : 1 frame
    Format settings, GOP : M=1, N=30
    Codec ID : avc1
    Codec ID/Info : Advanced Video Coding
    Duration : 2 min 52 s
    Bit rate : 21.1 Mb/s
    Width : 1 920 pixels
    Height : 1 080 pixels
    Display aspect ratio : 16:9
    Frame rate mode : Constant
    Frame rate : 23.976 (24000/1001) FPS
    Color space : YUV
    Chroma subsampling : 4:2:0
    Bit depth : 8 bits
    Scan type : Progressive
    Bits/(Pixel*Frame) : 0.424
    Stream size : 434 MiB (98%)
    Language : English
    Encoded date : UTC 2021-11-28 18:19:18
    Tagged date : UTC 2021-11-28 18:19:18
    Codec configuration box : avcC

    Audio
    ID : 2
    Format : AAC LC
    Format/Info : Advanced Audio Codec Low Complexity
    Codec ID : mp4a-40-2
    Duration : 2 min 52 s
    Source duration : 2 min 52 s
    Bit rate mode : Variable
    Bit rate : 317 kb/s
    Maximum bit rate : 332 kb/s
    Channel(s) : 2 channels
    Channel layout : L R
    Sampling rate : 48.0 kHz
    Frame rate : 46.875 FPS (1024 SPF)
    Compression mode : Lossy
    Stream size : 6.54 MiB (1%)
    Source stream size : 6.54 MiB (1%)
    Language : English
    Encoded date : UTC 2021-11-28 18:19:18
    Tagged date : UTC 2021-11-28 18:19:18

    Hidden Content:
    You must reply before you can see the hidden data contained here.
    [​IMG]
    General
    Complete name : C:\Users\Asia\Documents\Billie Eilish – Getting Older [TIME 100 Performance] (MasterRip AVC 1080p) – 2021.mp4
    Format : MPEG-4
    Format profile : Base Media / Version 2
    Codec ID : mp42 (mp42/mp41)
    File size : 667 MiB
    Duration : 4 min 20 s
    Overall bit rate : 21.5 Mb/s
    Encoded date : UTC 2021-11-28 18:35:50
    Tagged date : UTC 2021-11-28 18:35:55
    TIM : 00:00:00:00
    TSC : 24000
    TSZ : 1001

    Video
    ID : 1
    Format : AVC
    Format/Info : Advanced Video Codec
    Format profile : High@L4.2
    Format settings : CABAC / 1 Ref Frames
    Format settings, CABAC : Yes
    Format settings, Reference frames : 1 frame
    Format settings, GOP : M=1, N=30
    Codec ID : avc1
    Codec ID/Info : Advanced Video Coding
    Duration : 4 min 20 s
    Bit rate : 21.2 Mb/s
    Width : 1 920 pixels
    Height : 1 080 pixels
    Display aspect ratio : 16:9
    Frame rate mode : Constant
    Frame rate : 23.976 (24000/1001) FPS
    Color space : YUV
    Chroma subsampling : 4:2:0
    Bit depth : 8 bits
    Scan type : Progressive
    Bits/(Pixel*Frame) : 0.426
    Stream size : 657 MiB (99%)
    Language : English
    Encoded date : UTC 2021-11-28 18:35:50
    Tagged date : UTC 2021-11-28 18:35:50
    Codec configuration box : avcC

    Audio
    ID : 2
    Format : AAC LC
    Format/Info : Advanced Audio Codec Low Complexity
    Codec ID : mp4a-40-2
    Duration : 4 min 20 s
    Source duration : 4 min 20 s
    Bit rate mode : Constant
    Bit rate : 317 kb/s
    Channel(s) : 2 channels
    Channel layout : L R
    Sampling rate : 48.0 kHz
    Frame rate : 46.875 FPS (1024 SPF)
    Compression mode : Lossy
    Stream size : 9.85 MiB (1%)
    Source stream size : 9.86 MiB (1%)
    Language : English
    Encoded date : UTC 2021-11-28 18:35:50
    Tagged date : UTC 2021-11-28 18:35:50

    Hidden Content:
    You must reply before you can see the hidden data contained here.
     
    rightoo1, tf135 and melodie like this.
  2. Loading...


  3. luismolinanyc

    luismolinanyc Well-Known Member

    Joined:
    May 17, 2016
    Messages:
    2,076
    Likes Received:
    137
  4. abcdefg

    abcdefg Well-Known Member

    Joined:
    Feb 6, 2018
    Messages:
    1,277
    Likes Received:
    150
    Thanks
     
  5. music videos

    music videos Well-Known Member V . I . P.

    Joined:
    Jul 5, 2016
    Messages:
    3,164
    Likes Received:
    6,041
  6. josevo

    josevo Active Member

    Joined:
    Dec 19, 2020
    Messages:
    419
    Likes Received:
    106
    AMAZING do u have more by Billie? :)
     
  7. Vvenusss

    Vvenusss Well-Known Member

    Joined:
    Oct 29, 2020
    Messages:
    1,690
    Likes Received:
    132
    Thanks
     
  8. apnyc

    apnyc Active Member

    Joined:
    Apr 11, 2016
    Messages:
    499
    Likes Received:
    153
    amazing
     
  9. tf135

    tf135 Well-Known Member

    Joined:
    Nov 14, 2014
    Messages:
    5,448
    Likes Received:
    377
    thanks
     
  10. frankwu8

    frankwu8 Active Member

    Joined:
    Aug 29, 2016
    Messages:
    506
    Likes Received:
    102
    great job!thanks
     
  11. tarek

    tarek Active Member

    Joined:
    Jun 17, 2021
    Messages:
    437
    Likes Received:
    38
    thanks
     
  12. mobbius

    mobbius Member

    Joined:
    Jun 19, 2015
    Messages:
    126
    Likes Received:
    16
    big tnx!
     
  13. kotn3l

    kotn3l Member

    Joined:
    May 4, 2021
    Messages:
    39
    Likes Received:
    4
    thanks!
     
  14. apl3

    apl3 Well-Known Member

    Joined:
    Jun 11, 2017
    Messages:
    2,966
    Likes Received:
    319
    thanks
     
  15. blondeboy123

    blondeboy123 Active Member

    Joined:
    Oct 21, 2017
    Messages:
    776
    Likes Received:
    52
  16. zorgmund

    zorgmund Active Member

    Joined:
    Feb 3, 2018
    Messages:
    292
    Likes Received:
    33
    Thanks!!
     
  17. rightoo1

    rightoo1 Member

    Joined:
    Dec 29, 2021
    Messages:
    204
    Likes Received:
    17
    Thanks
     
  18. amsterdammer83

    amsterdammer83 Member

    Joined:
    Nov 26, 2021
    Messages:
    322
    Likes Received:
    15
  19. AsyrafGrande

    AsyrafGrande Well-Known Member

    Joined:
    May 25, 2015
    Messages:
    1,055
    Likes Received:
    133