WEB-RiP BET Soul Train Awards [Nov-28-2021] 1080p BET WEB-DL AAC2.0 H.264-MELODiE

Discussion in 'HD Live Performances' started by melodie, Dec 4, 2021.

  1. melodie

    melodie Super Moderator Staff Member Super Moderator Uploader V . I . P.

    Joined:
    Dec 29, 2020
    Messages:
    2,402
    Likes Received:
    12,709
    BET Soul Train Awards [Nov-28-2021] 1080p BET WEB-DL AAC2.0 H.264-MELODiE

    Tisha Campbell and Tichina Arnold return to host this celebration of soul and R&B, with performances from Silk Sonic, Ari Lennox and Lucky Daye, and honoree tributes to Ashanti and Maxwell.

    [​IMG]


    Format : Matroska
    Format version : Version 4
    File size : 3.67 GiB
    Duration : 1 h 43 min
    Overall bit rate : 5 077 kb/s
    Encoded date : UTC 2021-12-04 19:14:42
    Writing application : mkvmerge v62.0.0 ('Apollo') 64-bit
    Writing library : libebml v1.4.2 + libmatroska v1.6.4

    Video
    ID : 1
    Format : AVC
    Format/Info : Advanced Video Codec
    Format profile : High@L4
    Format settings : CABAC / 4 Ref Frames
    Format settings, CABAC : Yes
    Format settings, Reference fra : 4 frames
    Codec ID : V_MPEG4/ISO/AVC
    Duration : 1 h 43 min
    Bit rate : 4 945 kb/s
    Width : 1 920 pixels
    Height : 1 080 pixels
    Display aspect ratio : 16:9
    Frame rate mode : Constant
    Frame rate : 29.970 (29970/1000) FPS
    Color space : YUV
    Chroma subsampling : 4:2:0
    Bit depth : 8 bits
    Scan type : Progressive
    Bits/(Pixel*Frame) : 0.080
    Stream size : 3.58 GiB (97%)
    Language : English
    Default : Yes
    Forced : No

    Audio
    ID : 2
    Format : AAC LC
    Format/Info : Advanced Audio Codec Low Complexity
    Codec ID : A_AAC-2
    Duration : 1 h 43 min
    Bit rate : 129 kb/s
    Channel(s) : 2 channels
    Channel layout : L R
    Sampling rate : 48.0 kHz
    Frame rate : 46.875 FPS (1024 SPF)
    Compression mode : Lossy
    Delay relative to video : -33 ms
    Stream size : 95.2 MiB (3%)
    Language : English
    Default : Yes
    Forced : No

    Text
    ID : 3
    Format : UTF-8
    Codec ID : S_TEXT/UTF8
    Codec ID/Info : UTF-8 Plain Text
    Duration : 1 h 43 min
    Bit rate : 74 b/s
    Count of elements : 2457
    Stream size : 56.4 KiB (0%)
    Language : English
    Default : Yes
    Forced : No

    Hidden Content:
    You must either reply or click 'Like' to see the hidden information contained here.
     
  2. Loading...


  3. multimediafm

    multimediafm Well-Known Member V . I . P. Archiver Donor

    Joined:
    Mar 27, 2014
    Messages:
    22,183
    Likes Received:
    3,019
    Thanks:)
     
    melodie likes this.
  4. aicha_konate

    aicha_konate Well-Known Member

    Joined:
    Jun 25, 2018
    Messages:
    1,357
    Likes Received:
    110
    thanks
     
    melodie likes this.
  5. pdannis

    pdannis Active Member Donor

    Joined:
    Jun 1, 2014
    Messages:
    496
    Likes Received:
    70
    thanks
     
    melodie likes this.
  6. aaliyah2009

    aaliyah2009 Well-Known Member

    Joined:
    Feb 2, 2017
    Messages:
    3,129
    Likes Received:
    219
    thanks
     
    melodie likes this.
  7. Nobi7a

    Nobi7a New Member

    Joined:
    Nov 19, 2021
    Messages:
    8
    Likes Received:
    1
    Thank you
     
    melodie likes this.
  8. detroit1

    detroit1 Well-Known Member

    Joined:
    Jan 6, 2014
    Messages:
    4,864
    Likes Received:
    954
    thank you
     
    melodie likes this.
  9. 2J1S90

    2J1S90 Well-Known Member

    Joined:
    Nov 23, 2016
    Messages:
    1,056
    Likes Received:
    90
    thanks~!
     
    melodie likes this.
  10. rasputin

    rasputin Well-Known Member

    Joined:
    Dec 9, 2015
    Messages:
    2,138
    Likes Received:
    205
    stay safe
     
    melodie likes this.
  11. willo

    willo Active Member

    Joined:
    Jan 29, 2014
    Messages:
    294
    Likes Received:
    29
    thank you for sharing it!
     
  12. rot86

    rot86 Active Member

    Joined:
    Jun 1, 2014
    Messages:
    652
    Likes Received:
    51
    thx frot hisssss