Bad Bunny Ft. Drake - Mia | (MCM Top-HDTV-1080i-DD2.0-IboYLDz)-HDMania

Discussion in 'MCM & MCM Top HD' started by By.YLDz, Feb 4, 2019.

  1. By.YLDz

    By.YLDz Taylor Swift Fan.. Capper

    Joined:
    Oct 7, 2013
    Messages:
    766
    Likes Received:
    8,114
    CappeD IboYLDz

    [​IMG] [​IMG] [​IMG] [​IMG] [​IMG] [​IMG] [​IMG] [​IMG]

    Format : MPEG-TS
    File size : 173 MiB
    Duration : 3 min 20 s
    Overall bit rate mode : Variable
    Overall bit rate : 7 212 kb/s

    Video
    ID : 1310 (0x51E)
    Menu ID : 8713 (0x2209)
    Format : AVC
    Format/Info : Advanced Video Codec
    Format profile : High@L4
    Format settings : CABAC / 4 Ref Frames
    Format settings, CABAC : Yes
    Format settings, ReFrames : 4 frames
    Codec ID : 27
    Duration : 3 min 20 s
    Bit rate : 6 662 kb/s
    Width : 1 920 pixels
    Height : 1 080 pixels
    Display aspect ratio : 16:9
    Frame rate : 25.000 FPS
    Standard : Component
    Color space : YUV
    Chroma subsampling : 4:2:0
    Bit depth : 8 bits
    Scan type : MBAFF
    Scan type, store method : Interleaved fields
    Scan order : Top Field First
    Bits/(Pixel*Frame) : 0.129
    Stream size : 159 MiB (92%)
    Color range : Limited
    Color primaries : BT.709
    Transfer characteristics : BT.709
    Matrix coefficients : BT.709

    Audio
    ID : 1321 (0x529)
    Menu ID : 8713 (0x2209)
    Format : AC-3
    Format/Info : Audio Coding 3
    Commercial name : Dolby Digital
    Codec ID : 6
    Duration : 3 min 20 s
    Bit rate mode : Constant
    Bit rate : 192 kb/s
    Channel(s) : 2 channels
    Channel layout : L R
    Sampling rate : 48.0 kHz
    Frame rate : 31.250 FPS (1536 SPF)
    Bit depth : 16 bits
    Compression mode : Lossy
    Delay relative to video : -80 ms
    Stream size : 4.60 MiB (3%)
    Language : French
    Service kind : Complete Main


    Hidden Content:
    You must either reply or click 'Like' to see the hidden information contained here.
    Rar Pass: IboYLDz
     
    alexis38382, aaroon, Eric. and 4 others like this.
  2. Loading...


  3. CELOBRAZiL

    CELOBRAZiL Well-Known Member Capper V . I . P. Donor

    Joined:
    Oct 2, 2013
    Messages:
    13,668
    Likes Received:
    49,732
    Thanks! :)
     
    By.YLDz likes this.
  4. sebascasilda

    sebascasilda Active Member

    Joined:
    May 17, 2018
    Messages:
    297
    Likes Received:
    59
  5. rvden

    rvden Well-Known Member

    Joined:
    Apr 9, 2017
    Messages:
    1,005
    Likes Received:
    745
    Thank you!
     
  6. rhea

    rhea Well-Known Member

    Joined:
    Jan 6, 2014
    Messages:
    12,187
    Likes Received:
    2,440
    thank you so much
     
  7. miamia99

    miamia99 Well-Known Member

    Joined:
    Jun 18, 2019
    Messages:
    2,188
    Likes Received:
    72
    thnaks
     
  8. Ricardoxxxlo

    Ricardoxxxlo Member

    Joined:
    Feb 27, 2018
    Messages:
    326
    Likes Received:
    24
  9. noor.ansr

    noor.ansr Member

    Joined:
    Jul 9, 2015
    Messages:
    102
    Likes Received:
    4
    thanks
     
  10. UHD4K

    UHD4K Soriel Kobayashi

    Joined:
    Oct 30, 2016
    Messages:
    503
    Likes Received:
    1,122
    EXCELENTE CALIDAD
     
  11. vaxell

    vaxell Member

    Joined:
    Apr 30, 2019
    Messages:
    212
    Likes Received:
    4
    thanks