HDTV Ariana Grande - iHeartRadio Jingle Ball Z100 NY 2013 HDTV 1080i

Discussion in 'HD Live Performances' started by nikshell29, Mar 4, 2021.

  1. nikshell29

    nikshell29 Well-Known Member

    Joined:
    Dec 29, 2020
    Messages:
    950
    Likes Received:
    1,306
    Ariana Grande - iHeartRadio Jingle Ball Z100 NY 2013 HDTV 1080i
    [​IMG]

    SET LIST:
    Right There
    Last Christmas
    Honeymoon Avenue (Acoustic)
    The Way

    General
    ID : 1 (0x1)
    Complete name : Ariana Grande - Live @ Jingle Ball Z100 NY 2013. HDTV 1080i - nitz1.ts
    Format : MPEG-TS
    File size : 1.94 GiB
    Duration : 15 min 55 s
    Overall bit rate mode : Variable
    Overall bit rate : 17.5 Mb/s

    Video
    ID : 308 (0x134)
    Menu ID : 1 (0x1)
    Format : MPEG Video
    Format version : Version 2
    Format profile : Main@High
    Format settings : CustomMatrix / BVOP
    Format settings, BVOP : Yes
    Format settings, Matrix : Custom
    Format settings, GOP : M=3, N=30
    Format settings, picture struc : Frame
    Codec ID : 2
    Duration : 15 min 55 s
    Bit rate mode : Variable
    Bit rate : 16.2 Mb/s
    Maximum bit rate : 16.6 Mb/s
    Width : 1 920 pixels
    Height : 1 080 pixels
    Display aspect ratio : 16:9
    Frame rate : 29.970 (30000/1001) FPS
    Color space : YUV
    Chroma subsampling : 4:2:0
    Bit depth : 8 bits
    Scan type : Interlaced
    Scan order : Top Field First
    Compression mode : Lossy
    Bits/(Pixel*Frame) : 0.261
    Time code of first frame : 00:00:00;00
    Time code source : Group of pictures header
    GOP, Open/Closed : Open
    GOP, Open/Closed of first fram : Closed
    Stream size : 1.80 GiB (93%)

    Audio
    ID : 256 (0x100)
    Menu ID : 1 (0x1)
    Format : MPEG Audio
    Format version : Version 1
    Format profile : Layer 2
    Codec ID : 3
    Duration : 15 min 55 s
    Bit rate mode : Constant
    Bit rate : 384 kb/s
    Channel(s) : 2 channels
    Sampling rate : 48.0 kHz
    Frame rate : 41.667 FPS (1152 SPF)
    Compression mode : Lossy
    Stream size : 43.7 MiB (2%)
    Language : English​
    Video: MPEG2 Video 1920x1080 29.97fps 16605kbps [V: mpeg2 main, yuv420p, 1920x1080, 16605 kb/s]
    Audio: MPEG Audio 48000Hz stereo 384kbps [A: English [eng] (mp2, 48000 Hz, stereo, 384 kb/s)]

    [​IMG]

    Hidden Content:
    You must either reply or click 'Like' to see the hidden information contained here.
    Credits to the original capper - nitz1
     
    Last edited: Apr 4, 2021
    rhea, iametor, acykory and 19 others like this.
  2. Loading...


  3. naughty_ari

    naughty_ari Member

    Joined:
    May 1, 2020
    Messages:
    287
    Likes Received:
    15
    thanks
     
    nikshell29 likes this.
  4. bigray72

    bigray72 Well-Known Member

    Joined:
    Jun 30, 2018
    Messages:
    1,004
    Likes Received:
    123
    thanks
     
    nikshell29 likes this.
  5. withcap

    withcap Well-Known Member

    Joined:
    Oct 29, 2013
    Messages:
    3,763
    Likes Received:
    653
    Thank you!:)
     
    nikshell29 likes this.
  6. 601960928

    601960928 Active Member

    Joined:
    Jul 3, 2016
    Messages:
    593
    Likes Received:
    87
    thanks
     
    nikshell29 likes this.
  7. MichelleBright

    MichelleBright Well-Known Member

    Joined:
    Jul 20, 2019
    Messages:
    1,762
    Likes Received:
    334
    Many thanks
     
    nikshell29 likes this.
  8. jamesplanet

    jamesplanet Well-Known Member

    Joined:
    Oct 12, 2020
    Messages:
    1,772
    Likes Received:
    111
    thank you so much
     
    nikshell29 likes this.
  9. whosjessanywayew

    whosjessanywayew Active Member

    Joined:
    Jan 12, 2017
    Messages:
    395
    Likes Received:
    52
    thanks
     
    nikshell29 likes this.
  10. Mat123

    Mat123 Well-Known Member

    Joined:
    Jan 9, 2018
    Messages:
    1,092
    Likes Received:
    33
    thanks
     
    nikshell29 likes this.
  11. Edotion

    Edotion Member

    Joined:
    Apr 8, 2021
    Messages:
    172
    Likes Received:
    0
  12. rhea

    rhea Well-Known Member

    Joined:
    Jan 6, 2014
    Messages:
    11,655
    Likes Received:
    2,250
  13. honiamam

    honiamam Well-Known Member

    Joined:
    Apr 1, 2016
    Messages:
    1,238
    Likes Received:
    160