Ariana Grande Feat. Mac Miller - The Way (DISNEYHD-1080i-AAC2.0-Dfrazzer)-HDMania

Discussion in 'DISNEY HD' started by Dfrazzer, Jul 31, 2015.

  1. Dfrazzer

    Dfrazzer Super Moderator Staff Member Super Moderator Capper V . I . P. Donor

    Joined:
    Nov 4, 2013
    Messages:
    6,359
    Likes Received:
    18,992
    This is the most complete version of this that Disney Channel has shown but it's still missing about 6 seconds from the end of the video.

    [​IMG] [​IMG] [​IMG] [​IMG] [​IMG] [​IMG] [​IMG] [​IMG] [​IMG] [​IMG] [​IMG] [​IMG] [​IMG] [​IMG] [​IMG] [​IMG] [​IMG] [​IMG] [​IMG] [​IMG] [​IMG] [​IMG] [​IMG] [​IMG]

    Code:
    General
    ID : 1 (0x1)
    Complete name : C:\Users\Dfrazzer\Desktop\Ariana Grande Ft Mac Miller - The Way Disney Channel 1080i HDMania.ts
    Format : MPEG-TS
    File size : 354 MiB
    Duration : 3mn 46s
    Overall bit rate mode : Variable
    Overall bit rate : 13.1 Mbps
    
    Video
    ID : 100 (0x64)
    Menu ID : 2 (0x2)
    Format : AVC
    Format/Info : Advanced Video Codec
    Format profile : High@L4.0
    Format settings, CABAC : Yes
    Format settings, ReFrames : 2 frames
    Codec ID : 27
    Duration : 3mn 45s
    Bit rate mode : Variable
    Bit rate : 12.3 Mbps
    Maximum bit rate : 24.0 Mbps
    Width : 1 920 pixels
    Height : 1 080 pixels
    Display aspect ratio : 16:9
    Frame rate : 25.000 fps
    Color space : YUV
    Chroma subsampling : 4:2:0
    Bit depth : 8 bits
    Scan type : Interlaced
    Scan order : Top Field First
    Bits/(Pixel*Frame) : 0.237
    Stream size : 331 MiB (93%)
    Color primaries : BT.709
    Transfer characteristics : BT.709
    Matrix coefficients : BT.709
    
    Audio
    ID : 101 (0x65)
    Menu ID : 2 (0x2)
    Format : AAC
    Format/Info : Advanced Audio Codec
    Format version : Version 4
    Format profile : LC
    Muxing mode : ADTS
    Codec ID : 15
    Duration : 3mn 45s
    Bit rate mode : Variable
    Bit rate : 217 Kbps
    Channel(s) : 2 channels
    Channel positions : Front: L R
    Sampling rate : 48.0 KHz
    Compression mode : Lossy
    Stream size : 5.86 MiB (2%)
    
    Hidden Content:
    You must reply before you can see the hidden data contained here.
    Capped by me.
     
  2. Loading...


  3. rhea

    rhea Well-Known Member

    Joined:
    Jan 6, 2014
    Messages:
    12,064
    Likes Received:
    2,398
    thank you so much
     
  4. 777josem

    777josem ProRes 1080p LPCM V . I . P. Uploader

    Joined:
    Sep 1, 2014
    Messages:
    3,890
    Likes Received:
    5,877
    Thank you so much!
     
  5. santa321

    santa321 Well-Known Member

    Joined:
    Dec 7, 2013
    Messages:
    2,172
    Likes Received:
    114
    thank you
     
  6. Hyrus

    Hyrus Aria/Sele-nator ~ Camilizer ~ Black Star ~ BLINK Donor

    Joined:
    Feb 9, 2015
    Messages:
    1,582
    Likes Received:
    1,890
    Thanks a lot. This is the best quality file I've found so far :cool:
     
  7. tf135

    tf135 Well-Known Member

    Joined:
    Nov 14, 2014
    Messages:
    5,378
    Likes Received:
    363
    thank you
     
  8. Michaelb_B90210

    Michaelb_B90210 Member

    Joined:
    Apr 4, 2015
    Messages:
    50
    Likes Received:
    7
  9. jayananda

    jayananda Well-Known Member

    Joined:
    Jan 14, 2015
    Messages:
    1,857
    Likes Received:
    448
    Thank You
     
  10. johymbim

    johymbim Member

    Joined:
    Jul 30, 2014
    Messages:
    658
    Likes Received:
    22
    Thank you
     
  11. Nytrpo

    Nytrpo Member

    Joined:
    May 5, 2014
    Messages:
    188
    Likes Received:
    3
    thanks dude
     
  12. thankstome

    thankstome Well-Known Member

    Joined:
    Feb 6, 2014
    Messages:
    1,505
    Likes Received:
    2,209
    Thank you
     
  13. sethypoo2000

    sethypoo2000 Member

    Joined:
    Dec 6, 2015
    Messages:
    36
    Likes Received:
    1
    Thanks!
     
    Last edited by a moderator: Dec 7, 2015
  14. edgar

    edgar Well-Known Member V . I . P.

    Joined:
    Oct 12, 2013
    Messages:
    3,041
    Likes Received:
    3,404
    Thank you so Much:love::love:
     
  15. Zeeh

    Zeeh Rallyforrivers.org

    Joined:
    Mar 20, 2015
    Messages:
    754
    Likes Received:
    32
    Thanks :)
     
  16. Nytro

    Nytro Active Member

    Joined:
    Nov 25, 2015
    Messages:
    413
    Likes Received:
    38
    thanks
     
  17. ezio123

    ezio123 New Member

    Joined:
    May 23, 2016
    Messages:
    10
    Likes Received:
    0
    thank you!
     
  18. BinhTVT

    BinhTVT Member

    Joined:
    Jun 30, 2015
    Messages:
    322
    Likes Received:
    4
    thanks
     
  19. PositiveRush97

    PositiveRush97 Member

    Joined:
    Jan 19, 2017
    Messages:
    168
    Likes Received:
    12
  20. tpuqt1

    tpuqt1 New Member

    Joined:
    Apr 3, 2017
    Messages:
    27
    Likes Received:
    1
    thnx.
     
  21. maxkeiser

    maxkeiser Well-Known Member Uploader

    Joined:
    Aug 24, 2016
    Messages:
    8,095
    Likes Received:
    29,287
    wahts taht