Anuel AA feat. Daddy Yankee, Ozuna & Karol G - China MASTER ProRes 1080p LPCM2.0

Discussion in 'PRORES HD' started by CELOBRAZiL, Jul 29, 2021.

  1. CELOBRAZiL

    CELOBRAZiL Well-Known Member Capper V . I . P. Donor

    Joined:
    Oct 2, 2013
    Messages:
    13,668
    Likes Received:
    49,732
    Anuel AA feat. Daddy Yankee, Ozuna & Karol G - China MASTER ProRes 1080p LPCM2.0

    [​IMG]



    Format : QuickTime
    Format/Info : Original Apple specifications
    File size : 5.82 GiB
    Duration : 5 min 1 s
    Overall bit rate mode : Variable
    Overall bit rate : 165 Mb/s
    Encoded date : UTC 2019-07-17 18:32:57
    Tagged date : UTC 2019-07-17 18:32:57
    Writing library : Apple QuickTime

    Video
    ID : 1
    Format : ProRes
    Format version : Version 1
    Format profile : 422 HQ
    Codec ID : apch
    Duration : 5 min 1 s
    Bit rate mode : Variable
    Bit rate : 164 Mb/s
    Width : 1 920 pixels
    Height : 1 080 pixels
    Display aspect ratio : 16:9
    Frame rate mode : Constant
    Frame rate : 23.976 (24000/1001) FPS
    Color space : YUV
    Chroma subsampling : 4:2:2
    Scan type : Progressive
    Bits/(Pixel*Frame) : 3.297
    Stream size : 5.76 GiB (99%)
    Writing library : dp4
    Language : English
    Encoded date : UTC 2019-07-17 18:32:57
    Tagged date : UTC 2019-07-17 18:32:57
    Color primaries : BT.709
    Transfer characteristics : BT.709
    Matrix coefficients : BT.709
    mdhd_Duration : 301885

    Audio
    ID : 2
    Format : PCM
    Format settings : Big / Signed
    Codec ID : twos
    Duration : 5 min 1 s
    Bit rate mode : Constant
    Bit rate : 1 536 kb/s
    Channel(s) : 2 channels
    Sampling rate : 48.0 kHz
    Bit depth : 16 bits
    Stream size : 55.3 MiB (1%)
    Language : English
    Encoded date : UTC 2019-07-17 18:32:57
    Tagged date : UTC 2019-07-17 18:32:57
    mdhd_Duration : 301885


    Link(s):
    Hidden Content:
    You must either reply or click 'Like' to see the hidden information contained here.
     
  2. Loading...


  3. CELOBRAZiL

    CELOBRAZiL Well-Known Member Capper V . I . P. Donor

    Joined:
    Oct 2, 2013
    Messages:
    13,668
    Likes Received:
    49,732
    :love::love::love:

    Added GOOGLE DRIVE link + MIRROR link! :p
     
  4. tegibu

    tegibu Well-Known Member

    Joined:
    Jan 9, 2018
    Messages:
    1,179
    Likes Received:
    805
    thanks
     
    CELOBRAZiL likes this.
  5. JCDJ2540

    JCDJ2540 Member

    Joined:
    Jul 28, 2021
    Messages:
    114
    Likes Received:
    3
    MUCHAS GRACIAS
     
    CELOBRAZiL likes this.
  6. sumon44

    sumon44 Member

    Joined:
    Dec 22, 2020
    Messages:
    593
    Likes Received:
    23
    thanks
     
    CELOBRAZiL likes this.
  7. Diseio

    Diseio Member

    Joined:
    Nov 7, 2013
    Messages:
    459
    Likes Received:
    21
    Thanks!
     
    CELOBRAZiL likes this.