Anuel AA & Bad Bunny - Hasta Que Dios Diga MASTER ProRes 1080p LPCM2.0

Discussion in 'PRORES HD' started by CELOBRAZiL, Jul 31, 2021.

  1. CELOBRAZiL

    CELOBRAZiL Well-Known Member Capper V . I . P. Donor

    Joined:
    Oct 2, 2013
    Messages:
    13,990
    Likes Received:
    51,366
    Anuel AA & Bad Bunny - Hasta Que Dios Diga MASTER ProRes 1080p LPCM2.0

    [​IMG]



    Format : MPEG-4
    Format profile : QuickTime
    Codec ID : qt 2005.03 (qt )
    File size : 5.55 GiB
    Duration : 4 min 28 s
    Overall bit rate mode : Variable
    Overall bit rate : 178 Mb/s
    Encoded date : UTC 2020-05-29 19:43:47
    Tagged date : UTC 2020-05-26 20:07:09
    Writing library : Apple QuickTime
    TIM : 00:00:20:01
    TSC : 24000
    TSZ : 1001

    Video
    ID : 1
    Format : ProRes
    Format version : Version 0
    Format profile : 422 HQ
    Codec ID : apch
    Duration : 4 min 28 s
    Bit rate mode : Variable
    Bit rate : 176 Mb/s
    Width : 1 920 pixels
    Height : 1 080 pixels
    Display aspect ratio : 16:9
    Frame rate mode : Constant
    Frame rate : 23.976 (24000/1001) FPS
    Color space : YUV
    Chroma subsampling : 4:2:2
    Scan type : Progressive
    Bits/(Pixel*Frame) : 3.541
    Stream size : 5.50 GiB (99%)
    Writing library : Apple
    Language : English
    Encoded date : UTC 2020-05-29 19:43:47
    Tagged date : UTC 2020-05-29 19:43:47
    Color primaries : BT.709
    Transfer characteristics : BT.709
    Matrix coefficients : BT.709

    Audio
    ID : 2
    Format : PCM
    Format settings : Little / Signed
    Codec ID : sowt
    Duration : 4 min 28 s
    Bit rate mode : Constant
    Bit rate : 1 536 kb/s
    Channel(s) : 2 channels
    Channel layout : L R
    Sampling rate : 48.0 kHz
    Bit depth : 16 bits
    Stream size : 49.1 MiB (1%)
    Language : English
    Encoded date : UTC 2020-05-29 19:43:47
    Tagged date : UTC 2020-05-29 19:43:47

    Other
    ID : 3
    Type : Time code
    Format : QuickTime TC
    Duration : 4 min 28 s
    Frame rate : 23.976 (24000/1001) FPS
    Time code of first frame : 00:00:20:01
    Time code, striped : Yes
    Language : English
    Encoded date : UTC 2020-05-29 19:43:47
    Tagged date : UTC 2020-05-29 19:43:47


    Link(s):
    Hidden Content:
    You must either reply or click 'Like' to see the hidden information contained here.
     
  2. Loading...


  3. CELOBRAZiL

    CELOBRAZiL Well-Known Member Capper V . I . P. Donor

    Joined:
    Oct 2, 2013
    Messages:
    13,990
    Likes Received:
    51,366
    :love::love::love:

    Added GOOGLE DRIVE link + MIRROR link! :p
     
  4. gui_eda

    gui_eda Active Member

    Joined:
    Nov 10, 2018
    Messages:
    400
    Likes Received:
    76
    Like, like, like!!! Valeu demais Celo!!!
     
    CELOBRAZiL likes this.
  5. noob_masterf

    noob_masterf Member

    Joined:
    Mar 27, 2021
    Messages:
    81
    Likes Received:
    6
    vey thnx!
     
    CELOBRAZiL likes this.
  6. pipenba23

    pipenba23 New Member

    Joined:
    Aug 5, 2021
    Messages:
    14
    Likes Received:
    1
    THANK YOUUUU
     
    CELOBRAZiL likes this.
  7. schoumann

    schoumann Well-Known Member

    Joined:
    Nov 26, 2019
    Messages:
    1,087
    Likes Received:
    92
    Merci!!!!!!!!!!!!!!!
     
    CELOBRAZiL likes this.
  8. jorjais34

    jorjais34 Active Member

    Joined:
    Oct 11, 2018
    Messages:
    737
    Likes Received:
    47
    gracias
     
    CELOBRAZiL likes this.