Andrea Banica Ft. Tony - Samba | (The Voice HD-1080i-MP2-IboYLDz)-HDMania

Discussion in 'The Voice HD' started by By.YLDz, Aug 3, 2020.

  1. By.YLDz

    By.YLDz Taylor Swift Fan.. Capper Uploader

    Joined:
    Oct 7, 2013
    Threads:
    616
    Messages:
    806
    Likes Received:
    9,119
    CappeD IboYLDz

    [​IMG]
    [​IMG]
    [​IMG]
    [​IMG]
    [​IMG]
    [​IMG]
    [​IMG]
    [​IMG]
    [​IMG]


    Format : MPEG-TS
    File size : 354 MiB
    Duration : 3 min 15 s
    Overall bit rate mode : Variable
    Overall bit rate : 15.2 Mb/s

    Video
    ID : 1205 (0x4B5)
    Menu ID : 241 (0xF1)
    Format : AVC
    Format/Info : Advanced Video Codec
    Format profile : High@L4.1
    Format settings : CABAC / 4 Ref Frames
    Format settings, CABAC : Yes
    Format settings, Reference : 4 frames
    Codec ID : 27
    Duration : 3 min 15 s
    Bit rate : 14.2 Mb/s
    Width : 1 920 pixels
    Height : 1 080 pixels
    Display aspect ratio : 16:9
    Frame rate : 25.000 FPS
    Color space : YUV
    Chroma subsampling : 4:2:0
    Bit depth : 8 bits
    Scan type : Interlaced
    Scan type, store method : Separated fields
    Scan order : Top Field First
    Bits/(Pixel*Frame) : 0.274
    Stream size : 332 MiB (94%)
    Color range : Limited
    Color primaries : BT.709
    Transfer characteristics : BT.709
    Matrix coefficients : BT.709

    Audio
    ID : 1206 (0x4B6)
    Menu ID : 241 (0xF1)
    Format : MPEG Audio
    Format version : Version 1
    Format profile : Layer 2
    Codec ID : 3
    Duration : 3 min 15 s
    Bit rate mode : Constant
    Bit rate : 192 kb/s
    Channel(s) : 2 channels
    Sampling rate : 48.0 kHz
    Frame rate : 41.667 FPS (1152 SPF)
    Compression mode : Lossy
    Delay relative to video : -40 ms
    Stream size : 4.48 MiB (1%)
    Language : Bulgarian

    Hidden Content:
    You must either reply or click 'Like' to see the hidden information contained here.
    Rar Pass : IboYLDz
     
    duchien_7, Spadan, djrafik and 2 others like this.
  2. Loading...


  3. CELOBRAZiL

    CELOBRAZiL Well-Known Member Capper Uploader V . I . P. Donor

    Joined:
    Oct 2, 2013
    Threads:
    3,335
    Messages:
    15,978
    Likes Received:
    67,626
    Thanks! :)
     
  4. multimediafm

    multimediafm Well-Known Member V . I . P. Collector Donor

    Joined:
    Mar 27, 2014
    Threads:
    47
    Messages:
    25,123
    Likes Received:
    3,945
  5. rhea

    rhea Well-Known Member

    Joined:
    Jan 6, 2014
    Threads:
    0
    Messages:
    13,757
    Likes Received:
    2,602
    thank you so much! :)
     
  6. ruhull.fb

    ruhull.fb Well-Known Member

    Joined:
    May 19, 2017
    Threads:
    1
    Messages:
    2,090
    Likes Received:
    74
  7. believer2017

    believer2017 Member

    Joined:
    Aug 19, 2017
    Threads:
    0
    Messages:
    69
    Likes Received:
    0
    Thank you mate.
     
  8. beryozael

    beryozael Well-Known Member

    Joined:
    Oct 25, 2020
    Threads:
    0
    Messages:
    1,750
    Likes Received:
    123
    спасибо
     
  9. beryozael

    beryozael Well-Known Member

    Joined:
    Oct 25, 2020
    Threads:
    0
    Messages:
    1,750
    Likes Received:
    123
    спасибо
     
  10. Abhisheksp012

    Abhisheksp012 New Member

    Joined:
    Jun 24, 2022
    Threads:
    0
    Messages:
    6
    Likes Received:
    0
  11. limonato

    limonato Well-Known Member

    Joined:
    Dec 1, 2014
    Threads:
    5
    Messages:
    1,975
    Likes Received:
    110
    thanks